<?xml version="1.0" standalone="no"?>
<!DOCTYPE svg PUBLIC "-//W3C//DTD SVG 1.1//EN" "http://www.w3.org/Graphics/SVG/1.1/DTD/svg11.dtd" >
<svg xmlns="http://www.w3.org/2000/svg">
<metadata></metadata>
<defs>
<font id="planerregular" horiz-adv-x="605" >
<font-face units-per-em="1000" ascent="750" descent="-250" />
<missing-glyph horiz-adv-x="340" />
<glyph horiz-adv-x="0" />
<glyph horiz-adv-x="333" />
<glyph unicode=" "  horiz-adv-x="340" />
<glyph unicode="&#x09;" horiz-adv-x="340" />
<glyph unicode="&#xa0;" horiz-adv-x="340" />
<glyph unicode="!" horiz-adv-x="152" d="M46 229v443q0 12 8 20t22 8q13 0 22 -8t9 -20v-443q0 -13 -9 -21t-22 -8q-14 0 -22 8t-8 21zM46 29v43q0 13 8 21t22 8q13 0 22 -8t9 -21v-43q0 -13 -9 -21t-22 -8q-14 0 -22 8t-8 21z" />
<glyph unicode="&#x22;" horiz-adv-x="308" d="M201 519v157q0 13 8.5 21t21.5 8q14 0 22.5 -8t8.5 -21v-157q0 -12 -8.5 -20t-21.5 -8q-14 0 -22.5 7.5t-8.5 20.5zM46 519v157q0 13 8.5 21t21.5 8q14 0 22.5 -8t8.5 -21v-157q0 -12 -8.5 -20t-22 -8t-22 7.5t-8.5 20.5z" />
<glyph unicode="#" horiz-adv-x="601" d="M407 485l38 182q3 11 12 18.5t21.5 7.5t21 -7.5t8.5 -19.5q0 -3 -1 -7l-38 -174h60q16 0 24.5 -8.5t8.5 -21t-8.5 -21t-22.5 -8.5h-74l-41 -188h105q15 0 24 -8t9 -21t-8.5 -21.5t-22.5 -8.5h-119l-33 -153q-2 -11 -11 -18.5t-21 -7.5q-13 0 -21 7.5t-8 18.5q0 4 1 7 l31 146h-153l-32 -153q-3 -12 -12.5 -19t-21 -7t-20 8t-8.5 19v6l32 146h-56q-13 0 -22 8.5t-9 21.5t9 21t24 8h65l41 188h-101q-13 0 -22 8.5t-9 21t9.5 21t23.5 8.5h111l40 182q6 26 33 26q13 0 21 -7t8 -20q0 -3 -1 -7l-38 -174h153zM353 238l41 188h-152l-41 -188h152z " />
<glyph unicode="$" horiz-adv-x="527" d="M242 699v35q0 9 7 16t17.5 7t17.5 -7t7 -18v-32h144q15 0 23.5 -8.5t8.5 -20t-9 -20t-21 -8.5h-146v-256q50 -9 82.5 -21t59 -32t39 -50.5t12.5 -74.5q0 -103 -48.5 -153t-144.5 -55v-33q0 -11 -7 -18t-17 -7q-11 0 -18 7t-7 16v34h-167q-12 0 -21 8.5t-9 20t9 20t21 8.5 h167v280q-39 9 -63 15.5t-52.5 20.5t-44 32.5t-26.5 48t-11 69.5q0 88 50 129.5t147 46.5zM242 397v243q-136 -6 -136 -117q0 -33 9 -55.5t29 -36t41 -20.5t57 -14zM291 327v-268q132 9 132 150q0 56 -29.5 79t-102.5 39z" />
<glyph unicode="%" horiz-adv-x="622" d="M55 40l473 652q8 11 22 11q9 0 16 -5q11 -8 11 -20q0 -9 -6 -17l-474 -653q-8 -12 -21 -12q-8 0 -15 5q-12 8 -12 21q0 9 6 18zM165 695q55 0 81 -32t26 -103q0 -72 -26.5 -105.5t-80.5 -33.5q-55 0 -81.5 33.5t-26.5 106.5q0 71 26 102.5t82 31.5zM165 656 q-37 0 -51.5 -23.5t-14.5 -71.5q0 -50 15 -76t51 -26t50.5 25.5t14.5 75.5q0 48 -14.5 72t-50.5 24zM462 273q55 0 81 -31.5t26 -103.5t-26.5 -105.5t-80.5 -33.5q-55 0 -81.5 33.5t-26.5 106.5q0 71 26 102.5t82 31.5zM462 234q-37 0 -51.5 -23t-14.5 -72t15 -75t51 -26 t50.5 25.5t14.5 74.5t-14.5 72.5t-50.5 23.5z" />
<glyph unicode="&#x26;" horiz-adv-x="604" d="M286 700h32q64 0 107 -38.5t43 -107.5q0 -10 -2 -20t-5 -18t-9.5 -18t-10.5 -16t-14 -15.5t-15 -14.5t-17 -14.5t-16 -13t-18 -13.5t-16 -12l-39 -31l143 -180l7 75q2 14 8 20t20 5q25 -2 25 -26q0 -3 -1 -8l-17 -120l69 -85q8 -11 8 -21q0 -12 -12 -21q-10 -8 -19 -8 q-11 0 -22 14l-50 63q-12 -28 -35 -47q-31 -29 -91 -29h-160q-62 0 -105 45.5t-43 116.5q0 23 7.5 43t25 39t28.5 29t37 29t31 23l66 52l-47 58q-41 51 -41 119q0 64 43.5 105t104.5 41zM271 412l45 36q4 3 10 8q30 22 44 34t27 30t13 34q0 46 -24.5 68t-67.5 22h-32 q-39 0 -64.5 -24.5t-25.5 -65.5q0 -49 29 -84zM428 122l-167 211l-65 -51q-8 -6 -30.5 -23t-31 -24t-21.5 -20.5t-18 -26t-5 -26.5q0 -49 25 -77.5t64 -28.5h160q37 0 53 15q27 21 36 51z" />
<glyph unicode="'" horiz-adv-x="152" d="M46 519v157q0 13 8 21.5t22 8.5q13 0 22 -8.5t9 -21.5v-157q0 -12 -9 -20t-22 -8q-14 0 -22 8t-8 20z" />
<glyph unicode="(" horiz-adv-x="239" d="M176 700q16 -7 16 -22q0 -6 -2 -14q-81 -236 -81 -365t82 -377q2 -6 2 -12q0 -15 -14 -22q-7 -4 -15 -4q-19 0 -26 18q-5 10 -24.5 70t-43.5 161.5t-24 165.5q0 61 23 158t41.5 153t25.5 74q6 18 28 18q6 0 12 -2z" />
<glyph unicode=")" horiz-adv-x="239" d="M63 700q6 2 13 2q21 0 27 -18q7 -18 25.5 -74t41.5 -153t23 -158q0 -64 -23.5 -165.5t-43.5 -161.5t-24 -70q-7 -18 -27 -18q-8 0 -14 4q-15 7 -15 22q0 6 2 12q18 45 48 161q34 135 34 216q0 129 -80 365q-3 8 -3 14q0 15 16 22z" />
<glyph unicode="*" horiz-adv-x="411" d="M180 585v91q0 11 8 18.5t19 7.5q12 0 19.5 -7.5t7.5 -18.5v-92l85 27q5 2 10 2q20 0 25 -19v-6q0 -20 -19 -26l-87 -27l56 -78q3 -7 3 -13q0 -12 -9 -19q-8 -6 -17 -6q-14 0 -23 11l-54 74l-52 -72q-8 -11 -23 -11q-9 0 -15 5q-11 7 -11 19q0 9 6 17l55 75l-87 29 q-19 6 -19 24q0 3 1 7q5 19 26 19q4 0 8 -2z" />
<glyph unicode="+" horiz-adv-x="586" d="M262 280v187q0 12 9.5 20t22.5 8t21 -7.5t8 -19.5v-188h186q14 0 22.5 -8t8.5 -20.5t-8.5 -20.5t-22.5 -8h-186v-189q0 -12 -8.5 -19.5t-22.5 -7.5q-12 0 -21 8t-9 21v187h-185q-13 0 -21.5 8.5t-8.5 20.5q0 11 9 19.5t22 8.5h184z" />
<glyph unicode="," horiz-adv-x="192" d="M84 21v60q0 13 8.5 21.5t22.5 8.5q13 0 22.5 -9t9.5 -21v-68q0 -28 -20 -48.5t-44 -26.5q-13 -1 -22 6t-10 19q-1 2 -1 4q0 12 14 19q20 11 20 35z" />
<glyph unicode="-" horiz-adv-x="425" d="M349 232h-271q-31 1 -31 30q0 11 8.5 19.5t21.5 8.5h272q13 0 21.5 -8.5t8.5 -20.5q0 -13 -8 -21t-22 -8z" />
<glyph unicode="." horiz-adv-x="156" d="M46 24v38q0 13 9 22t23 9t23.5 -9t9.5 -22v-36q0 -15 -9.5 -24.5t-23.5 -9.5t-23 9t-9 23z" />
<glyph unicode="/" horiz-adv-x="435" d="M49 35l289 649q7 17 25 17q7 0 13 -3q14 -6 14 -22q0 -7 -3 -14l-288 -647q-8 -16 -25 -16q-8 0 -14 3q-14 8 -14 22q0 5 3 11z" />
<glyph unicode="0" horiz-adv-x="569" d="M47 231v181q0 126 63 189.5t175 63.5q113 0 175.5 -64.5t62.5 -188.5v-181q0 -117 -63.5 -178.5t-174.5 -61.5q-110 0 -174 62t-64 178zM461 231v181q0 96 -45 146t-131 50t-131 -49t-45 -147v-181q0 -88 47.5 -135.5t129 -47.5t128.5 47.5t47 135.5z" />
<glyph unicode="1" horiz-adv-x="342" d="M61 547l168 112q11 7 24 7q20 0 31.5 -12t11.5 -31v-592q0 -14 -8.5 -23t-22 -9t-22.5 8.5t-9 21.5v563l-138 -94q-9 -6 -18 -6q-15 0 -25 11q-7 8 -7 19q0 17 15 25z" />
<glyph unicode="2" horiz-adv-x="529" d="M60 64l241 225q45 42 69.5 81.5t24.5 90.5v29q0 55 -41.5 86.5t-101.5 31.5h-168q-12 0 -21 8.5t-9 19.5q0 12 9 20.5t21 8.5h169q88 0 144.5 -47t56.5 -128v-28q0 -66 -27 -113t-81 -98l-207 -194h312q15 0 23.5 -8.5t8.5 -19.5q0 -12 -9 -20.5t-21 -8.5h-369 q-15 0 -26 11t-11 25q0 16 13 28z" />
<glyph unicode="3" horiz-adv-x="500" d="M283 314h-125q-14 0 -23.5 8.5t-9.5 19.5t9.5 19.5t21.5 8.5h133q44 0 74.5 32.5t30.5 82.5q0 52 -32 87.5t-79 35.5h-204q-14 0 -23 8.5t-9 20t9 20t21 8.5h206q73 0 122 -52t49 -128q0 -50 -23 -87.5t-63 -56.5q40 -22 63 -65t23 -96q0 -79 -49 -129.5t-122 -50.5h-206 q-12 0 -21 8.5t-9 20.5q0 11 9 19.5t21 8.5h206q47 0 79 34t32 89q0 57 -32 95.5t-79 38.5z" />
<glyph unicode="4" horiz-adv-x="569" d="M53 232l167 415q6 17 27 17q9 0 17 -4q15 -8 15 -24q0 -6 -2 -11l-163 -409q-4 -11 -4 -15q0 -2 1 -4q2 -6 19 -6h226v143q0 14 8.5 22.5t22 8.5t22.5 -8.5t9 -20.5v-145h74q14 0 22.5 -8.5t8.5 -21t-8.5 -21t-22.5 -8.5h-74v-101q0 -14 -8.5 -23t-22.5 -9t-22.5 8.5 t-8.5 21.5v103h-235q-31 0 -52.5 21t-21.5 52q0 11 6 27z" />
<glyph unicode="5" horiz-adv-x="507" d="M243 0h-166q-13 0 -21.5 8t-8.5 20.5t8.5 21t21.5 8.5h165q69 0 113.5 29t44.5 91v68q0 54 -40 82t-103 28h-163q-21 0 -34 12t-13 32v210q0 20 13 33t34 13h316q13 0 22 -8.5t9 -21t-9 -20t-22 -7.5h-302v-188h150q90 0 146.5 -41.5t56.5 -123.5v-68q0 -91 -60 -134.5 t-158 -43.5z" />
<glyph unicode="6" horiz-adv-x="535" d="M291 664h144q14 0 23 -8.5t9 -19.5t-9 -20t-21 -9h-146q-83 0 -129.5 -42t-50.5 -126v-25h165q213 -1 213 -177v-41q0 -89 -56.5 -143t-162.5 -54q-112 0 -167.5 55.5t-55.5 175.5v194q0 120 63.5 180t180.5 60zM425 196v41q0 120 -151 120h-164v-125q0 -97 38.5 -136.5 t121.5 -39.5q79 0 117 37t38 103z" />
<glyph unicode="7" horiz-adv-x="506" d="M77 664h315q28 0 48 -19.5t20 -46.5q0 -14 -5 -25l-245 -560q-6 -13 -26 -13q-9 0 -16 3q-15 9 -15 25q0 5 1 8l238 541q6 14 6 19v3q-2 8 -21 8h-298q-14 0 -23 9t-9 20t9 19.5t21 8.5z" />
<glyph unicode="8" horiz-adv-x="565" d="M348 -1h-129q-74 0 -123 50.5t-49 130.5q0 54 25 97.5t68 62.5q-42 16 -67.5 55t-25.5 90q0 76 49 127.5t122 51.5h130q73 0 122 -52t49 -128q0 -50 -26 -89.5t-68 -53.5q43 -17 68.5 -62t25.5 -100q0 -79 -49 -129.5t-122 -50.5zM216 370h137q45 0 75.5 32t30.5 82 q0 52 -32 87.5t-79 35.5h-130q-47 0 -79 -35t-32 -87q0 -51 31 -83t78 -32zM218 56h130q47 0 79 34.5t32 88.5q0 57 -32 95.5t-79 38.5h-130q-47 0 -79 -38t-32 -95q0 -55 32 -89.5t79 -34.5z" />
<glyph unicode="9" horiz-adv-x="535" d="M47 426v42q0 89 56.5 142.5t162.5 53.5q112 0 167.5 -55t55.5 -175v-194q0 -121 -63.5 -181t-180.5 -60h-145q-14 0 -22.5 8.5t-8.5 20.5q0 11 8.5 19.5t21.5 8.5h146q82 0 128.5 42.5t50.5 126.5v25h-164q-213 0 -213 176zM425 307v125q0 96 -38 135.5t-121 39.5 q-79 0 -117.5 -37t-38.5 -102v-42q0 -119 152 -119h163z" />
<glyph unicode=":" horiz-adv-x="156" d="M46 359v38q0 13 9 22t23 9t23.5 -9t9.5 -22v-36q0 -15 -9.5 -24.5t-23.5 -9.5t-23 9t-9 23zM46 28v38q0 13 9 22t23 9t23.5 -9t9.5 -22v-36q0 -15 -9.5 -24t-23.5 -9t-23 8.5t-9 22.5z" />
<glyph unicode=";" horiz-adv-x="194" d="M83 359l1 38q0 12 9 21.5t23 9.5t23.5 -9.5t9.5 -21.5v-36q0 -15 -9.5 -24.5t-23.5 -9.5t-23.5 9t-9.5 23zM84 19v59q0 12 9 21.5t22 9.5t22.5 -9.5t9.5 -21.5v-67q0 -29 -19.5 -49t-44.5 -27q-13 -1 -22 6.5t-10 18.5q-1 2 -1 4q0 13 14 19q20 11 20 36z" />
<glyph unicode="&#x3c;" horiz-adv-x="456" d="M69 347l294 191q6 4 15 4q15 0 23 -11q6 -8 6 -17q0 -15 -12 -22l-261 -170q-7 -4 -7 -11t6 -12l259 -177q14 -9 14 -25q0 -9 -6 -16q-9 -11 -22 -11q-9 0 -19 6l-292 197q-19 13 -19 37q0 23 21 37z" />
<glyph unicode="=" horiz-adv-x="586" d="M78 390h431q14 0 22.5 -8t8.5 -21t-8.5 -20.5t-22.5 -7.5h-432q-13 1 -21.5 9t-8.5 20q0 11 9 19.5t22 8.5zM78 216h431q14 0 22.5 -8t8.5 -21t-8.5 -20.5t-22.5 -7.5h-432q-13 1 -21.5 9t-8.5 20q0 11 9 19.5t22 8.5z" />
<glyph unicode="&#x3e;" horiz-adv-x="456" d="M324 322l-262 170q-11 7 -11 22q0 9 6 17q8 11 23 11q9 0 15 -4l293 -191q22 -14 22 -37q0 -24 -19 -37l-292 -197q-10 -6 -20 -6q-13 0 -21 11q-6 7 -6 16q0 16 14 25l258 177q7 5 6.5 12t-6.5 11z" />
<glyph unicode="?" horiz-adv-x="455" d="M167 226v24q0 37 14 60t47 53l62 57q55 50 55 108q0 115 -133 115h-134q-15 0 -23 8t-8 21q0 11 8 19.5t21 8.5h136q93 0 145 -44t52 -128q0 -43 -19 -78.5t-59 -70.5l-65 -59q-38 -35 -38 -70v-22q0 -14 -8.5 -22t-22.5 -8q-13 0 -21.5 8t-8.5 20zM165 27v41 q0 12 9.5 21t23.5 9q13 0 22.5 -9t9.5 -21v-39q0 -14 -9.5 -23t-22.5 -9q-14 0 -23.5 9t-9.5 21z" />
<glyph unicode="@" horiz-adv-x="590" d="M47 228v185q0 129 64 191.5t183 62.5q250 0 250 -257q0 -96 -50.5 -158.5t-116.5 -62.5h-111q-40 0 -68 27.5t-28 66.5q0 38 28 65.5t68 27.5h94v35q0 22 -12.5 37t-32.5 15h-102q-12 0 -19 6t-7 16t7 17t19 7h107q39 0 64.5 -27.5t25.5 -68.5v-170q81 48 81 170 q0 207 -196 207t-196 -207v-185q0 -93 50.5 -142.5t135.5 -49.5q40 0 81 12h6q10 0 16.5 -7t7.5 -18q1 -18 -18 -23q-36 -12 -93 -12q-110 0 -174 62t-64 178zM360 235v94h-94q-19 0 -32.5 -13.5t-13.5 -32.5t13.5 -33.5t32.5 -14.5h94z" />
<glyph unicode="A" d="M38 38l182 602q8 27 31 43.5t52 16.5t51.5 -16.5t31.5 -43.5l182 -605q1 -4 1 -7q0 -11 -8 -19t-21 -9q-11 -1 -20 5.5t-12 16.5l-58 185h-294l-58 -184q-3 -11 -12 -17.5t-20 -5.5q-14 1 -21.5 9t-7.5 20q0 4 1 9zM433 265l-108 360q-6 17 -21.5 17t-21.5 -17l-109 -360 h260z" />
<glyph unicode="B" horiz-adv-x="624" d="M142 700h224q76 0 131 -54.5t55 -129.5q0 -48 -24.5 -87.5t-65.5 -62.5q52 -21 84 -67.5t32 -104.5q0 -80 -57.5 -137t-138.5 -57h-240q-21 0 -35 13.5t-14 33.5v606q0 20 14 33.5t35 13.5zM156 390h210q51 0 88 37t37 89t-37 89.5t-88 37.5h-210v-253zM382 333h-226 v-276h226q55 0 95.5 40.5t40.5 96.5q0 57 -40.5 98t-95.5 41z" />
<glyph unicode="C" horiz-adv-x="553" d="M306 700h171q12 0 21 -8.5t9 -20t-9 -20t-21 -8.5h-171q-175 0 -175 -186v-220q0 -80 46.5 -130t128.5 -50h169q14 0 23 -8.5t9 -20t-9 -20t-21 -8.5h-171q-112 0 -175 65t-63 172v220q0 243 238 243z" />
<glyph unicode="D" horiz-adv-x="640" d="M93 47v606q0 20 14 33.5t35 13.5h193q238 0 238 -243v-220q0 -107 -63 -172t-175 -65h-193q-21 0 -35 13.5t-14 33.5zM509 237v220q0 186 -174 186h-179v-586h179q82 0 128 50t46 130z" />
<glyph unicode="E" horiz-adv-x="562" d="M93 47v606q0 20 14 33.5t35 13.5h340q16 0 25 -8.5t9 -21t-9 -21t-23 -8.5h-328v-248h269q15 0 24 -8.5t9 -20.5q0 -13 -9 -21.5t-22 -8.5h-271v-275h326q16 0 25 -8.5t9 -21t-8.5 -21t-23.5 -8.5h-342q-21 0 -35 13.5t-14 33.5z" />
<glyph unicode="F" horiz-adv-x="562" d="M427 334h-271v-302q0 -14 -9 -23t-22.5 -9t-22.5 8.5t-9 21.5v623q0 20 14 33.5t35 13.5h340q16 0 25 -8.5t9 -21t-9 -21t-23 -8.5h-328v-248h269q15 0 24 -8.5t9 -20.5q0 -13 -9 -21.5t-22 -8.5z" />
<glyph unicode="G" horiz-adv-x="643" d="M498 302h-114q-14 0 -23 8.5t-9 20.5q0 11 9 20t21 9h130q21 0 34.5 -14t13.5 -34v-265q0 -20 -13.5 -33.5t-34.5 -13.5h-206q-112 0 -175 65t-63 172v220q0 243 238 243h189q12 0 21.5 -8.5t9.5 -20t-9.5 -20t-21.5 -8.5h-189q-174 0 -174 -186v-220q0 -80 46 -130 t128 -50h192v245z" />
<glyph unicode="H" horiz-adv-x="687" d="M531 380v290q0 13 9 21.5t23 8.5t22.5 -9t8.5 -23v-636q0 -14 -8.5 -23t-22.5 -9t-23 8.5t-9 21.5v292h-375v-290q0 -14 -9 -23t-22 -9q-14 0 -23 8.5t-9 21.5v640q0 13 9 21.5t23 8.5q13 0 22 -9t9 -23v-288h375z" />
<glyph unicode="I" horiz-adv-x="248" d="M93 30v640q0 13 9 21.5t22.5 8.5t22.5 -9t9 -23v-636q0 -14 -9 -23t-22.5 -9t-22.5 8.5t-9 21.5z" />
<glyph unicode="J" horiz-adv-x="324" d="M232 668v-484q0 -37 -3.5 -65.5t-9 -48t-17 -32.5t-22.5 -20.5t-30.5 -11.5t-36 -5t-44.5 -1q-15 0 -23.5 8.5t-8.5 20.5q0 11 9 19.5t21 8.5q25 0 37.5 1t26.5 5.5t19 12t10.5 24t6.5 37.5t2 56v477q0 13 9 21.5t22 8.5q14 0 22.5 -9t9.5 -23z" />
<glyph unicode="K" horiz-adv-x="566" d="M261 414l202 275q8 11 24 11q14 0 22.5 -8.5t8.5 -21.5q0 -9 -7 -19l-228 -304l241 -299q6 -8 6 -18q0 -13 -9 -21.5t-22 -8.5q-16 0 -25 11l-220 282q-17 23 -27 23h-71v-284q0 -14 -9 -23t-22.5 -9t-22.5 8.5t-9 21.5v640q0 13 9 21.5t22 8.5q14 0 23 -8.5t9 -21.5 v-293h65q3 0 6 1t6.5 4t6 5.5t6 6.5t5.5 7t5.5 7.5t4.5 5.5z" />
<glyph unicode="L" horiz-adv-x="521" d="M93 47v623q0 13 9 21.5t23 8.5q13 0 22 -8.5t9 -21.5v-611h296q15 0 24 -8.5t9 -21t-9 -21t-22 -8.5h-311q-21 0 -35.5 13.5t-14.5 33.5z" />
<glyph unicode="M" horiz-adv-x="802" d="M391 112l170 539q7 22 27.5 35.5t45.5 13.5q31 0 53 -22t22 -52v-596q0 -13 -8.5 -21.5t-22.5 -8.5t-22.5 8.5t-8.5 21.5v591q0 20 -11 21q-5 1 -9 -3.5t-7 -13.5l-191 -597q-8 -28 -39 -28t-39 28l-178 597q-6 19 -16 17q-11 -2 -11 -21v-591q0 -13 -9 -21.5t-22 -8.5 q-14 0 -23 8.5t-9 21.5v596q0 30 22.5 52t53.5 22q26 0 45.5 -14t26.5 -37z" />
<glyph unicode="N" horiz-adv-x="676" d="M531 79v591q0 13 9 21.5t23 8.5q13 0 22 -8.5t9 -21.5v-593q0 -33 -22.5 -55t-56.5 -22q-23 0 -42.5 12.5t-28.5 32.5l-265 581q-8 18 -20 16q-13 -1 -13 -21v-591q0 -13 -9 -21.5t-22 -8.5q-14 0 -23 8.5t-9 21.5v593q0 33 23 55t56 22q24 0 43 -12.5t29 -32.5l265 -581 q8 -18 20 -16t12 21z" />
<glyph unicode="O" horiz-adv-x="656" d="M306 700h46q237 0 237 -243v-220q0 -107 -62.5 -172t-174.5 -65h-46q-111 0 -174.5 65t-63.5 172v220q0 243 238 243zM132 457v-220q0 -80 46 -130t128 -50h46q82 0 128 50t46 130v220q0 186 -174 186h-46q-174 0 -174 -186z" />
<glyph unicode="P" horiz-adv-x="596" d="M93 30v623q0 20 14 33.5t35 13.5h224q77 0 131 -54.5t54 -128.5q0 -76 -54.5 -130t-130.5 -54h-210v-301q0 -14 -9 -23t-22.5 -9t-22.5 8.5t-9 21.5zM156 390h210q51 0 88 37.5t37 89t-37 89t-88 37.5h-210v-253z" />
<glyph unicode="Q" horiz-adv-x="656" d="M306 699h46q237 0 237 -243v-220q0 -70 -27.5 -122.5t-80.5 -81.5l90 -89q11 -9 11 -23q0 -13 -9 -22t-23 -9t-23 10l-109 107q-30 -7 -66 -7h-46q-111 0 -174.5 65t-63.5 172v220q0 243 238 243zM526 236v220q0 185 -174 185h-46q-174 0 -174 -185v-220q0 -80 46 -130 t128 -50h46q82 0 128 50t46 130z" />
<glyph unicode="R" horiz-adv-x="609" d="M142 700h224q77 0 131 -54.5t54 -128.5q0 -67 -45 -117.5t-109 -59.5l-19 -2l158 -294q4 -7 4 -14q0 -13 -9 -21.5t-22 -8.5q-20 0 -29 17l-171 316h-153v-303q0 -13 -9 -21.5t-23 -8.5q-13 0 -22 8.5t-9 21.5v623q0 20 14 33.5t35 13.5zM156 390h210q51 0 88 37.5t37 89 t-37 89t-88 37.5h-210v-253z" />
<glyph unicode="S" horiz-adv-x="531" d="M269 0h-192q-13 0 -21.5 8.5t-8.5 20t8.5 20t21.5 8.5h192q78 0 117 36t39 116q0 32 -8.5 52.5t-30.5 34t-48 21t-72 16.5q-32 6 -49 10t-44.5 12t-42 16.5t-33.5 22.5t-28 31.5t-15.5 42t-6.5 55.5q0 177 221 177h169q14 0 23 -8.5t9 -20t-9 -20t-22 -8.5h-170 q-80 0 -120.5 -28t-40.5 -92q0 -22 4.5 -38.5t10.5 -29t19 -22t24.5 -15.5t32.5 -11.5t36.5 -8.5t43.5 -8q53 -9 88 -20.5t63.5 -31.5t42 -52t13.5 -77q0 -109 -54 -159t-162 -50z" />
<glyph unicode="T" horiz-adv-x="583" d="M67 700h448q14 0 23 -8.5t9 -20t-9 -20t-21 -8.5h-193v-614q0 -11 -9.5 -20t-21.5 -9q-13 0 -22 8.5t-9 20.5v613h-195q-12 0 -21 9t-9 20t9 20t21 9z" />
<glyph unicode="U" horiz-adv-x="660" d="M92 206v465q0 11 9.5 20t22.5 9q12 0 21 -9t9 -20v-465q0 -68 37 -109t88 -41h121q55 0 86 41t31 109v463q0 13 9 22t21 9q13 0 22.5 -9t9.5 -20v-465q0 -93 -48.5 -150.5t-130.5 -57.5h-121q-79 0 -133 55.5t-54 152.5z" />
<glyph unicode="V" horiz-adv-x="579" d="M313 76l168 598q7 27 35 26q13 -1 20 -9.5t7 -19.5q0 -4 -1 -8l-167 -602q-7 -26 -31 -43.5t-54 -17.5q-32 0 -55.5 18t-30.5 46l-166 599q-1 3 -1 7q0 12 8 20.5t20 9.5q27 1 34 -26l167 -598q5 -18 24 -18q18 0 23 18z" />
<glyph unicode="W" horiz-adv-x="750" d="M119 62l-82 605v5q0 12 9.5 20t21.5 8q13 0 22 -7.5t10 -18.5l78 -596q2 -19 13 -20q9 -1 16 16l134 319q9 22 35 22q25 0 34 -20l133 -321q7 -17 17 -16t13 20l79 598q2 10 10.5 17t20.5 7q14 0 23.5 -9.5t7.5 -23.5l-82 -605q-4 -28 -24 -45t-48 -17q-24 0 -43 12.5 t-27 32.5l-114 275l-115 -276q-8 -19 -27 -31.5t-43 -12.5q-29 0 -49 17.5t-23 44.5z" />
<glyph unicode="X" horiz-adv-x="554" d="M278 397l184 289q8 14 26 14q13 0 21.5 -8.5t8.5 -21.5q0 -8 -5 -17l-193 -306l193 -302q6 -9 6 -15q0 -13 -9 -21.5t-22 -8.5q-18 0 -27 14l-182 285l-184 -285q-9 -14 -27 -14q-14 0 -22.5 8.5t-8.5 21.5q0 8 5 16l197 301l-199 312q-3 5 -3 11q0 13 8.5 21.5t22.5 8.5 q17 0 27 -16z" />
<glyph unicode="Y" horiz-adv-x="547" d="M275 389l177 295q9 15 26 15h5q13 -1 20.5 -9.5t7.5 -19.5q0 -8 -4 -14l-200 -337v-289q0 -13 -9 -21.5t-22.5 -8.5t-22.5 8.5t-9 21.5v289l-203 335q-4 7 -4 16q0 11 7 19t21 10h6q15 0 24 -14z" />
<glyph unicode="Z" horiz-adv-x="544" d="M77 700h351q30 0 50 -19.5t20 -48.5q0 -22 -16 -43l-365 -503q-9 -13 -9 -18q0 -1 1 -2q2 -8 21 -8h335q15 0 24 -8t9 -21t-9 -21t-22 -8h-351q-29 0 -49 19.5t-20 48.5q0 23 11 38l369 508q8 12 8 18v2q-2 8 -21 8h-337q-13 0 -21.5 9t-8.5 20t8.5 20t21.5 9z" />
<glyph unicode="[" horiz-adv-x="293" d="M46 -77v773q0 19 12.5 31t32.5 12h125q15 0 23.5 -7.5t8.5 -19.5t-8 -20t-22 -8h-111v-749h109q15 0 23.5 -7.5t8.5 -19.5t-8.5 -20t-21.5 -8h-127q-20 0 -32.5 12t-12.5 31z" />
<glyph unicode="\" horiz-adv-x="435" d="M337 15l-288 647q-3 8 -3 15q0 15 15 21q6 3 12 3q18 0 25 -17l289 -649q3 -6 3 -11q0 -14 -14 -22q-6 -3 -13 -3q-19 0 -26 16z" />
<glyph unicode="]" horiz-adv-x="293" d="M248 696v-773q0 -19 -12.5 -31t-31.5 -12h-129q-12 0 -20.5 8t-8.5 20q0 11 9 19t22 8h110v749h-112q-12 0 -20.5 8t-8.5 20t9 19.5t22 7.5h127q19 0 31.5 -12t12.5 -31z" />
<glyph unicode="^" horiz-adv-x="574" d="M56 398l190 293q13 20 38 20q26 0 38 -19l195 -291q5 -7 5 -15q0 -13 -11 -21q-8 -5 -17 -5q-17 0 -25 13l-175 255q-5 6 -10.5 6t-10.5 -7l-169 -257q-7 -11 -23 -11q-9 0 -17 5q-12 8 -12 23q0 6 4 11z" />
<glyph unicode="_" horiz-adv-x="529" d="M453 -122h-377q-13 2 -21 9.5t-8 19.5q0 11 8.5 19.5t21.5 8.5h376q14 0 22 -8t8 -21q0 -12 -8 -20t-22 -8z" />
<glyph unicode="`" horiz-adv-x="268" d="M196 593l-148 69q-18 8 -18 25q0 6 3 12q7 16 25 16q6 0 13 -3l150 -72q18 -8 18 -25q0 -6 -3 -11q-7 -14 -23 -14q-8 0 -17 3z" />
<glyph unicode="a" horiz-adv-x="472" d="M272 455h-174q-15 0 -23 7.5t-8 19.5q0 11 8 19t21 8h179q60 0 99.5 -42t39.5 -104v-321q0 -18 -12.5 -30t-31.5 -12h-185q-61 0 -104 42t-43 102t43 102.5t104 42.5h169v70q0 42 -22.5 69t-59.5 27zM185 56h169v178h-169q-35 0 -61.5 -27t-26.5 -63t26.5 -62t61.5 -26z " />
<glyph unicode="b" horiz-adv-x="497" d="M67 44v627q0 13 8.5 21t21.5 8q12 0 21 -8t9 -21v-162h161q66 0 112.5 -46t46.5 -121v-153q0 -30 -8.5 -61t-26.5 -60.5t-51 -48.5t-75 -19h-174q-18 0 -31.5 13t-13.5 31zM127 455v-398h159q43 0 72 38t29 97v150q0 49 -29.5 81t-69.5 32h-161z" />
<glyph unicode="c" horiz-adv-x="429" d="M247 509h113q12 0 20 -8t8 -19q0 -12 -8 -19.5t-20 -7.5h-113q-71 0 -104.5 -37.5t-33.5 -112.5v-95q0 -156 138 -156h113q12 0 20 -8t8 -19q0 -12 -8 -19.5t-20 -7.5h-113q-197 0 -197 211v94q0 100 49.5 152t147.5 52z" />
<glyph unicode="d" horiz-adv-x="497" d="M431 671v-627q0 -18 -14 -31t-32 -13h-174q-42 0 -75 19t-50.5 48.5t-26.5 60.5t-9 61v153q0 75 46.5 121t112.5 46h162v162q0 13 8.5 21t20.5 8q13 0 22 -8t9 -21zM371 57v398h-162q-40 0 -69.5 -32t-29.5 -81v-150q0 -59 29 -97t72 -38h160z" />
<glyph unicode="e" horiz-adv-x="476" d="M50 237v78q0 89 54 141.5t136 52.5q93 0 143.5 -50.5t50.5 -143.5v-47q0 -18 -12.5 -30t-31.5 -12h-279q1 -94 28 -133t98 -39h152q13 0 21 -7.5t8 -19.5t-7.5 -19.5t-20.5 -7.5h-154q-106 0 -146 56t-40 181zM374 276v43q-2 136 -134 136q-59 0 -94 -37t-36 -98v-44h264 z" />
<glyph unicode="f" horiz-adv-x="334" d="M52 509h46q7 94 52.5 141.5t126.5 60.5q15 2 24 -6.5t9 -20.5q0 -22 -22 -27q-121 -18 -130 -148h125q12 0 20 -7.5t8 -19.5t-8 -19.5t-20 -7.5h-125v-426q0 -13 -9 -21t-22 -8t-21 8t-8 21v426h-46q-13 0 -21 7.5t-8 19.5t8 19.5t21 7.5z" />
<glyph unicode="g" horiz-adv-x="497" d="M211 509h176q19 0 31.5 -12t12.5 -31v-462q0 -120 -41 -175t-146 -55h-152q-14 0 -22 7.5t-8 19t8 19.5t20 8h153q71 0 98.5 39t28.5 133h-161q-66 0 -112.5 45.5t-46.5 121.5v152q0 30 9 61.5t26.5 61t50.5 48.5t75 19zM371 56v396h-160q-43 0 -72 -38t-29 -97v-150 q0 -49 29.5 -80t69.5 -31h162z" />
<glyph unicode="h" horiz-adv-x="515" d="M73 28v643q0 13 8.5 21t21.5 8t21.5 -8t8.5 -21v-162h163q66 0 113 -46t47 -121v-314q0 -13 -9 -20.5t-22 -7.5t-21 7.5t-8 20.5v312q0 50 -30 82.5t-70 32.5h-163v-427q0 -13 -8.5 -20.5t-21.5 -7.5q-14 0 -22 7.5t-8 20.5z" />
<glyph unicode="i" horiz-adv-x="200" d="M75 647v19q0 13 8 21t21 8t21.5 -8t8.5 -21v-19q0 -12 -8.5 -20t-21.5 -8t-21 8t-8 20zM75 28v452q0 13 8 21t21 8t21.5 -8t8.5 -21v-452q0 -13 -8.5 -20.5t-21.5 -7.5t-21 7.5t-8 20.5z" />
<glyph unicode="j" horiz-adv-x="198" d="M72 647v20q0 12 8.5 20t21.5 8t21.5 -8t8.5 -20v-20q0 -12 -8.5 -19.5t-21.5 -7.5q-14 0 -22 7.5t-8 19.5zM72 68v412q0 12 8.5 20.5t21.5 8.5t21.5 -8.5t8.5 -20.5v-413q0 -47 -9.5 -82t-36.5 -74l-57 -82q-7 -11 -22 -11q-12 0 -19 6q-12 9 -12 23q0 10 6 17l52 75 q38 57 38 129z" />
<glyph unicode="k" horiz-adv-x="459" d="M75 29v642q0 13 8.5 21t21.5 8t21.5 -8t8.5 -21v-368h68q9 0 17 9l146 177q9 11 23 11q12 0 20 -7q11 -9 11 -21q0 -10 -8 -19l-151 -180l170 -227q5 -9 5 -17q0 -13 -10 -21q-8 -8 -20 -8q-16 0 -25 12l-152 209q-15 21 -25 21h-69v-212q0 -13 -8.5 -21.5t-21.5 -8.5 t-21.5 8t-8.5 21z" />
<glyph unicode="l" horiz-adv-x="193" d="M75 29v642q0 13 8.5 21t21.5 8t21.5 -8.5t8.5 -22.5v-639q0 -13 -8.5 -21.5t-21.5 -8.5t-21.5 8t-8.5 21z" />
<glyph unicode="m" horiz-adv-x="780" d="M365 455h-239v-425q0 -13 -8.5 -21.5t-22 -8.5t-21 8.5t-7.5 20.5v436q0 17 12.5 30.5t32.5 13.5h452q66 0 112.5 -46t46.5 -121v-313q0 -12 -9 -20.5t-21 -8.5q-14 0 -22 8.5t-8 20.5v313q0 49 -29.5 81t-69.5 32h-140v-425q0 -13 -8.5 -21.5t-21.5 -8.5t-21 8.5 t-8 20.5v426z" />
<glyph unicode="n" horiz-adv-x="507" d="M112 509h178q66 0 112.5 -46t46.5 -121v-313q0 -12 -9 -20.5t-22 -8.5q-12 0 -20.5 8.5t-8.5 20.5v313q0 50 -27.5 81.5t-71.5 31.5h-163v-425q0 -13 -9 -21.5t-21 -8.5q-14 0 -22 8.5t-8 20.5v436q0 18 12.5 31t32.5 13z" />
<glyph unicode="o" horiz-adv-x="498" d="M280 -4h-61q-73 0 -121 48.5t-48 125.5v154q0 79 48 131.5t121 52.5h61q72 0 120 -52.5t48 -131.5v-154q0 -77 -48 -125.5t-120 -48.5zM219 48h61q48 0 78.5 34t30.5 85v162q0 53 -31 90.5t-78 37.5h-61q-48 0 -78.5 -37.5t-30.5 -90.5v-162q0 -51 30.5 -85t78.5 -34z " />
<glyph unicode="p" horiz-adv-x="505" d="M75 -161v626q0 17 13.5 30.5t32.5 13.5h173q43 0 75.5 -19t50.5 -48.5t27 -61t9 -61.5v-152q0 -76 -47 -121.5t-113 -45.5h-161v-161q0 -12 -8.5 -20t-21.5 -8t-21.5 8t-8.5 20zM135 452v-398h161q40 0 70 32t30 81v150q0 59 -29.5 97t-72.5 38h-159z" />
<glyph unicode="q" horiz-adv-x="497" d="M431 465v-625q0 -12 -9 -20.5t-22 -8.5q-12 0 -20.5 8.5t-8.5 20.5v160h-162q-66 0 -112.5 45.5t-46.5 121.5v152q0 30 9 61.5t26.5 61t50.5 48.5t75 19h174q19 0 32.5 -13.5t13.5 -30.5zM371 54v398h-160q-43 0 -72 -38t-29 -97v-150q0 -49 29.5 -81t69.5 -32h162z" />
<glyph unicode="r" horiz-adv-x="348" d="M264 519h30q14 0 22.5 -8t8.5 -19.5t-8 -19t-21 -7.5h-32q-69 0 -103.5 -37.5t-34.5 -105.5v-294q0 -13 -8.5 -20.5t-21.5 -7.5t-21 7.5t-8 20.5v465q0 26 24.5 26t25.5 -26l1 -41q42 67 146 67z" />
<glyph unicode="s" horiz-adv-x="457" d="M215 509h151q14 0 22 -8t8 -19q0 -12 -8 -20t-20 -8h-153q-52 0 -83 -20t-31 -63q0 -40 27.5 -57t93.5 -25l36 -6q158 -21 158 -137q0 -80 -50 -113t-141 -33h-140q-12 0 -20 7.5t-8 19.5q0 11 8 19t20 8h140q131 0 131 91q0 34 -27.5 56t-79.5 28l-43 5q-80 9 -122 40 t-42 95q0 71 48.5 105.5t124.5 34.5z" />
<glyph unicode="t" horiz-adv-x="362" d="M106 509v84q0 12 8.5 20.5t21.5 8.5t21.5 -8.5t8.5 -20.5v-84h128q15 0 23.5 -8t8.5 -21q0 -12 -8.5 -19.5t-21.5 -7.5h-130v-296q0 -58 20.5 -84t72.5 -26h37q13 0 21.5 -8.5t8.5 -20.5t-8.5 -20t-21.5 -8h-37q-80 0 -116.5 42t-36.5 125v296h-53q-13 0 -21.5 7.5 t-8.5 19.5q0 13 8.5 21t21.5 8h53z" />
<glyph unicode="u" horiz-adv-x="499" d="M381 54v424q0 12 8.5 21.5t21.5 9.5t21.5 -9t8.5 -20v-436q0 -18 -12.5 -31t-33.5 -13h-177q-66 0 -113 45.5t-47 121.5v313q0 11 9 20t22 9t21 -9t8 -20v-313q0 -49 30 -81t70 -32h163z" />
<glyph unicode="v" horiz-adv-x="445" d="M248 74l116 413q3 10 11.5 16t19.5 6q14 -1 21 -9t7 -20q0 -6 -2 -11l-123 -416q-7 -23 -27.5 -38t-47.5 -15t-47.5 15t-27.5 38l-124 423v6q0 11 8 19t19 8q25 1 31 -21l119 -414q5 -18 24 -18q18 0 23 18z" />
<glyph unicode="w" horiz-adv-x="731" d="M549 74l101 407q7 29 31 28q12 -1 19.5 -8.5t7.5 -20.5q0 -5 -1 -11l-101 -412q-7 -25 -28.5 -41t-50.5 -16q-28 0 -48.5 15.5t-27.5 40.5l-86 315l-87 -315q-6 -25 -27.5 -40.5t-50.5 -15.5q-28 0 -49 16t-27 41l-100 419q-1 3 -1 7q0 11 9 18.5t21 7.5q10 0 18 -6.5 t10 -15.5l100 -413q5 -18 20.5 -18t20.5 18l108 391q6 23 34.5 23t34.5 -23l109 -391q5 -18 20.5 -18t20.5 18z" />
<glyph unicode="x" horiz-adv-x="418" d="M210 305l127 190q9 14 25 14q10 0 18 -6q11 -8 11 -20q0 -10 -7 -21l-139 -206l143 -211q6 -9 6 -19q0 -12 -10 -19q-8 -7 -18 -7q-17 0 -26 13l-130 195l-131 -195q-9 -13 -25 -13q-10 0 -18 6q-10 8 -10 21q0 9 5 17l143 212l-140 209q-6 8 -6 18q0 14 12 21q8 5 16 5 q16 0 25 -13z" />
<glyph unicode="y" horiz-adv-x="440" d="M225 63l134 423q7 24 32 23q13 0 20 -7.5t7 -18.5q0 -5 -1 -10l-214 -677q-6 -20 -29 -19q-12 1 -19.5 9t-7.5 18q0 4 1 7l60 193l-12 2q-29 7 -37 34l-134 433q-2 4 -2 8q0 10 7.5 18.5t19.5 8.5q24 3 32 -21l131 -424q2 -7 6 -7t6 7z" />
<glyph unicode="z" horiz-adv-x="457" d="M90 509h287q17 0 28 -9.5t11 -23.5t-10 -28l-286 -393h263q14 0 22.5 -8t8.5 -20t-8 -19.5t-21 -7.5h-305q-17 0 -27.5 9t-10.5 24q0 16 9 28l289 393h-250q-12 0 -20 7.5t-8 19.5t8 20t20 8z" />
<glyph unicode="{" horiz-adv-x="430" d="M244 168v-233h110q14 0 22 -7.5t8 -19.5t-8 -20t-21 -8h-128q-19 0 -31.5 12t-12.5 31v245q0 49 -30.5 81.5t-76.5 32.5q-12 0 -20.5 8.5t-8.5 19.5t8.5 19.5t21.5 8.5q45 0 75.5 32.5t30.5 81.5v244q0 19 12.5 31t31.5 12h127q14 0 22 -8t8 -20q0 -11 -8 -19t-21 -8 h-111v-232q0 -50 -23.5 -87t-64.5 -54q41 -19 64.5 -56t23.5 -87z" />
<glyph unicode="|" horiz-adv-x="153" d="M46 -43v719q0 13 8.5 21.5t22.5 8.5q13 0 22 -8.5t9 -23.5v-715q0 -13 -9 -22t-22 -9q-14 0 -22.5 8.5t-8.5 20.5z" />
<glyph unicode="}" horiz-adv-x="430" d="M187 -65v233q0 50 23.5 87t64.5 56q-41 17 -64.5 54.5t-23.5 86.5v232h-112q-13 0 -20.5 8t-7.5 20q0 11 8 19t22 8h126q20 0 32.5 -12t12.5 -31v-244q0 -49 30.5 -81.5t75.5 -32.5q13 0 21.5 -8t8.5 -20q0 -11 -8.5 -19.5t-21.5 -8.5q-45 0 -75.5 -32.5t-30.5 -81.5 v-245q0 -19 -12.5 -31t-32.5 -12h-128q-12 0 -20 8t-8 20t8 19.5t22 7.5h110z" />
<glyph unicode="~" horiz-adv-x="589" d="M512 303q12 0 21 -8.5t9 -19.5q0 -59 -43.5 -102t-102.5 -43q-40 0 -74.5 20t-53.5 52q-12 20 -32 32t-42 12q-35 0 -61 -26t-26 -62q0 -11 -8.5 -19.5t-21.5 -8.5q-12 0 -21 8.5t-9 19.5q1 60 44 102.5t103 42.5q39 0 73.5 -20t53.5 -52q11 -21 31 -32.5t44 -11.5 q34 0 59.5 25t26.5 63q4 28 30 28z" />
<glyph unicode="&#xa1;" horiz-adv-x="152" d="M46 462v43q0 13 8 21.5t22 8.5q13 0 22 -8.5t9 -21.5v-43q0 -12 -9 -20t-22 -8q-14 0 -22 7.5t-8 20.5zM46 -137v442q0 13 8 21.5t22 8.5q13 0 22 -8.5t9 -21.5v-442q0 -13 -9 -21t-22 -8q-14 0 -22 8t-8 21z" />
<glyph unicode="&#xa2;" horiz-adv-x="432" d="M228 508v55q0 10 6.5 16.5t16.5 6.5t17 -6.5t7 -15.5v-55h80q12 0 20 -8t8 -19q0 -12 -8 -19.5t-20 -7.5h-80v-401h80q12 0 20 -8t8 -19q0 -12 -8 -19.5t-20 -7.5h-80v-55q0 -9 -7 -15.5t-17 -6.5t-16.5 6.5t-6.5 17.5v53q-183 7 -183 211v94q0 196 183 203zM228 54v400 q-124 -7 -124 -150v-94q0 -72 31.5 -112t92.5 -44z" />
<glyph unicode="&#xa3;" horiz-adv-x="493" d="M279 700h97q14 0 23 -8t9 -19.5t-8.5 -19.5t-21.5 -8h-99q-44 0 -64 -27t-20 -101v-105h144q14 0 22 -7.5t8 -19.5t-8 -19.5t-20 -7.5h-146v-303h221q14 0 22 -8t8 -19.5t-7.5 -19.5t-20.5 -8h-342q-13 0 -21.5 8t-8.5 20q0 11 8.5 19t21.5 8h59v303h-46q-13 0 -22 7.5 t-9 19.5t8.5 19.5t20.5 7.5h48v105q0 72 17 113t47 55.5t80 14.5z" />
<glyph unicode="&#xa5;" horiz-adv-x="551" d="M277 389l177 295q9 16 27 16q11 0 20 -6q12 -9 12 -24q0 -8 -4 -14l-131 -220h96q13 0 21.5 -8.5t8.5 -21t-8.5 -20.5t-21.5 -8h-130l-35 -59v-44h165q13 0 21.5 -8t8.5 -21q0 -12 -8.5 -20t-21.5 -8h-165v-188q0 -13 -9 -21.5t-22.5 -8.5t-22.5 8.5t-9 21.5v188h-168 q-13 1 -21.5 9t-8.5 20q0 11 8.5 19.5t22.5 8.5h167v44l-36 59h-133q-13 2 -21 9.5t-8 19.5q0 11 8.5 20t22.5 9h96l-132 218q-4 7 -4 16q0 15 13 24q8 6 18 6q18 0 27 -15z" />
<glyph unicode="&#xa6;" horiz-adv-x="152" d="M46 410v302q0 12 8.5 20t21.5 8q14 0 22.5 -8t8.5 -20v-303q-2 -13 -10.5 -21t-20.5 -8q-13 0 -21.5 8.5t-8.5 21.5zM46 -40v302q0 12 8.5 20.5t21.5 8.5q14 0 22.5 -8t8.5 -21v-301q-1 -31 -31 -31q-13 0 -21.5 8.5t-8.5 21.5z" />
<glyph unicode="&#xa7;" horiz-adv-x="468" d="M220 611h151q13 0 21.5 -8t8.5 -19q0 -12 -8 -19.5t-20 -7.5h-153q-110 0 -110 -75q0 -38 27 -56t91 -26l36 -4q156 -23 156 -137q0 -78 -58 -112q58 -34 58 -100q0 -79 -49 -112t-140 -33h-139q-12 0 -20 8t-8 19t8 18.5t20 7.5h139q128 0 128 91q0 34 -27 55.5 t-77 27.5l-42 5q-81 10 -122.5 40.5t-41.5 94.5q0 78 75 105q-38 15 -56.5 40t-18.5 66q0 131 171 131zM255 341l-42 5q-103 0 -103 -75q0 -39 28.5 -56.5t89.5 -25.5l41 -6q18 -2 35 -7q55 20 55 82q0 35 -27 56t-77 27z" />
<glyph unicode="&#xa8;" horiz-adv-x="269" d="M182 657v28q0 12 8 20t20.5 8t21 -8t8.5 -20v-28q0 -11 -8 -19t-21.5 -8t-21 7.5t-7.5 19.5zM30 657v28q0 12 8 20t20 8q13 0 21.5 -8t8.5 -20v-28q0 -11 -8 -19t-22 -8q-13 0 -20.5 7.5t-7.5 19.5z" />
<glyph unicode="&#xa9;" horiz-adv-x="611" d="M305 699q111 0 187 -80t76 -193t-76 -192t-187 -79t-186.5 79t-75.5 192t75.5 193t186.5 80zM305 656q-93 0 -156 -67.5t-63 -162.5t63 -162t156 -67t157 67t64 162t-64 162.5t-157 67.5zM304 579h55q9 0 14.5 -6t5.5 -14q0 -9 -5.5 -15t-14.5 -6h-55q-43 0 -56 -26.5 t-13 -86.5q0 -56 14.5 -83t54.5 -27h55q9 0 14.5 -6t5.5 -15q0 -8 -5.5 -14t-14.5 -6h-55q-63 0 -86.5 38t-23.5 113q0 77 23 115.5t87 38.5z" />
<glyph unicode="&#xaa;" horiz-adv-x="335" d="M90 659h107q38 0 62.5 -27t24.5 -67v-185q0 -16 -10.5 -27t-25.5 -11h-105q-38 0 -65.5 27t-27.5 66q0 38 27.5 65t65.5 27h97v36q0 23 -11.5 38.5t-31.5 15.5h-107q-22 0 -22 20q0 10 6 16t16 6zM240 385v97h-97q-20 0 -34.5 -14t-14.5 -33q0 -20 14.5 -35t34.5 -15h97z " />
<glyph unicode="&#xab;" horiz-adv-x="504" d="M70 312l113 88q8 6 19 6q15 0 23 -11q5 -7 5 -16q0 -14 -11 -22l-96 -77q-6 -5 -6 -10.5t5 -10.5l95 -78q13 -10 13 -24q0 -9 -7 -17q-9 -10 -21 -10q-11 0 -19 7l-117 97q-19 16 -19 36q0 24 23 42zM291 310l114 89q9 6 20 6q14 0 22 -9q7 -8 7 -17q0 -13 -12 -22 l-96 -77q-6 -4 -6 -10t6 -10l95 -80q12 -10 12 -23q0 -9 -7 -17q-8 -9 -21 -9q-11 0 -20 7l-115 96q-20 16 -20 36q0 24 21 40z" />
<glyph unicode="&#xac;" horiz-adv-x="833" />
<glyph unicode="&#xad;" horiz-adv-x="425" d="M349 232h-271q-31 1 -31 30q0 11 8.5 19.5t21.5 8.5h272q13 0 21.5 -8.5t8.5 -20.5q0 -13 -8 -21t-22 -8z" />
<glyph unicode="&#xae;" horiz-adv-x="611" d="M305 699q111 0 186.5 -79.5t75.5 -193t-75.5 -193t-186.5 -79.5t-186 79t-75 193t75 193.5t186 79.5zM305 655q-93 0 -155.5 -66.5t-62.5 -162.5t62.5 -162t155.5 -66t156 66t63 162t-63 162.5t-156 66.5zM237 582h69q107 0 107 -90q0 -71 -61 -87l53 -106q2 -4 2 -9 q0 -8 -7 -13q-5 -4 -11 -4q-13 0 -18 10l-61 118h-67v-110q0 -8 -5.5 -13.5t-13.5 -5.5t-13.5 5.5t-5.5 13.5v259q0 13 9 22.5t23 9.5zM243 438h77q54 0 54 54q0 52 -66 52h-65v-106z" />
<glyph unicode="&#xaf;" horiz-adv-x="316" d="M58 736h203q12 0 19.5 -7.5t7.5 -21.5q0 -13 -7.5 -21t-19.5 -8h-203q-12 0 -20 8t-8 21t8 21t20 8z" />
<glyph unicode="&#xb0;" horiz-adv-x="380" d="M190 696q65 0 105.5 -40t40.5 -103.5t-40.5 -103t-105.5 -39.5q-64 0 -104.5 39.5t-40.5 103t40.5 103.5t104.5 40zM190 644q-39 0 -63.5 -25.5t-24.5 -66t24.5 -66t63.5 -25.5q40 0 65 25.5t25 66t-25 66t-65 25.5z" />
<glyph unicode="&#xb1;" horiz-adv-x="529" d="M231 384v105q1 11 10 19t22 8t21 -8t8 -20v-104h161q14 0 22 -8t8 -21t-8 -21t-22 -8h-161v-108q0 -12 -9 -20t-22 -8q-12 0 -21 8.5t-9 20.5v107h-155q-13 0 -21 8.5t-8 21.5q0 11 8.5 19.5t21.5 8.5h154zM77 113h376q14 0 22 -8t8 -21t-8 -20.5t-22 -7.5h-364 q-42 0 -42 29q0 11 8.5 19.5t21.5 8.5z" />
<glyph unicode="&#xb2;" horiz-adv-x="333" d="M78 636h83q47 0 76.5 -25.5t29.5 -69.5v-14q0 -35 -13.5 -58.5t-41.5 -51.5l-87 -82h135q8 0 15 -7t7 -15q0 -9 -7 -15.5t-15 -6.5h-182q-10 0 -18 7.5t-8 18t8 17.5l119 114q14 13 22.5 22.5t15.5 25t7 31.5v14q0 24 -18.5 37t-44.5 13h-83q-9 0 -15.5 7t-6.5 15 t6.5 15.5t15.5 7.5z" />
<glyph unicode="&#xb3;" horiz-adv-x="320" d="M74 636h101q40 0 66.5 -28t26.5 -69q0 -46 -37 -70q37 -28 37 -80q0 -42 -27 -69.5t-66 -27.5h-101q-10 0 -16.5 6.5t-6.5 16.5q0 7 7 14t16 7h101q21 0 35 15t14 38q0 25 -14 41.5t-35 16.5h-61q-11 0 -17 6t-6 17q0 8 6 14.5t16 6.5h65q20 0 33 13.5t13 34.5 q0 23 -14 38.5t-35 15.5h-101q-10 0 -16.5 6.5t-6.5 16.5q0 6 7 13t16 7z" />
<glyph unicode="&#xb4;" horiz-adv-x="268" d="M47 640l151 72q7 3 13 3q17 0 25 -16q3 -6 3 -12q0 -16 -22 -26l-144 -68q-8 -3 -16 -3q-17 0 -24 14q-3 5 -3 11q0 17 17 25z" />
<glyph unicode="&#xb6;" horiz-adv-x="596" d="M210 700h306q15 0 23.5 -8.5t8.5 -20.5q0 -13 -8.5 -21.5t-21.5 -8.5h-55v-718q0 -14 -8.5 -23t-22 -9t-22.5 8.5t-9 21.5v720h-85v-720q0 -13 -9 -21.5t-21 -8.5q-14 0 -22 8.5t-8 21.5v417h-52q-65 0 -110.5 46t-45.5 123q0 32 9 63.5t26.5 61.5t50.5 49t76 19z" />
<glyph unicode="&#xb7;" horiz-adv-x="156" d="M46 291v39q0 12 9 21.5t23 9.5t23.5 -9.5t9.5 -21.5v-37q0 -14 -9.5 -23.5t-23.5 -9.5t-23 9t-9 22z" />
<glyph unicode="&#xb8;" horiz-adv-x="191" d="M53 18h41v-54q38 0 53 -15t15 -53q0 -40 -19.5 -57.5t-60.5 -17.5h-32q-20 0 -20 18q0 8 5 13.5t12 5.5h33q20 0 26 9t6 29q0 19 -6 27t-25 8q-28 1 -28 32v55z" />
<glyph unicode="&#xb9;" horiz-adv-x="243" d="M66 580l75 53q8 5 20 5q13 0 21 -8t8 -22v-291q0 -10 -6 -16.5t-16 -6.5q-9 0 -16 6.5t-7 15.5v265l-51 -33q-9 -6 -18 -6t-15 8q-4 7 -4 13q0 9 9 17z" />
<glyph unicode="&#xba;" horiz-adv-x="369" d="M186 659q69 0 100.5 -34.5t31.5 -122.5t-31.5 -124t-100.5 -36t-101.5 36.5t-32.5 123.5t32.5 122t101.5 35zM186 614q-48 0 -67.5 -22.5t-19.5 -89.5t20 -91.5t67 -24.5q46 0 65.5 24.5t19.5 91.5t-19 89.5t-66 22.5z" />
<glyph unicode="&#xbb;" horiz-adv-x="504" d="M382 280l-97 77q-11 8 -11 22q0 9 5 16q9 11 24 11q10 0 18 -6l113 -88q23 -18 23 -42q0 -20 -19 -36l-117 -97q-8 -7 -19 -7q-12 0 -21 10q-7 8 -7 17q0 14 13 24l95 78q6 5 6 10.5t-6 10.5zM158 280l-96 77q-12 9 -12 22q0 9 7 17q8 9 22 9q12 0 20 -6l114 -89 q21 -16 21 -40q0 -20 -20 -36l-115 -96q-9 -7 -20 -7q-13 0 -21 9q-7 8 -7 17q0 13 13 23l94 80q6 4 6 10t-6 10z" />
<glyph unicode="&#xbc;" horiz-adv-x="653" d="M148 32l267 596q6 15 22 15q5 0 9 -1q15 -5 15 -20q0 -6 -2 -11l-267 -600q-6 -13 -19 -13q-7 0 -14 4q-13 6 -13 20q0 5 2 10zM55 580l76 53q7 5 19 5q13 0 21.5 -8t8.5 -22v-291q0 -10 -6.5 -16.5t-16.5 -6.5q-9 0 -15.5 6.5t-7.5 15.5v265l-51 -33q-9 -6 -17 -6 q-10 0 -16 8q-4 6 -4 13q0 9 9 17zM360 124l81 199q7 17 22 17q5 0 10 -2q12 -5 12 -19q0 -5 -2 -10l-78 -191v-4v-2q1 -3 5 -3h101v64q0 9 6.5 15.5t14.5 6.5q10 0 17 -6.5t7 -14.5v-65h33q10 0 16.5 -6t6.5 -15.5t-6.5 -16t-16.5 -6.5h-33v-43q0 -10 -7 -16.5t-17 -6.5 q-8 0 -14.5 6.5t-6.5 15.5v44h-110q-21 0 -32 13t-11 30q0 9 2 16z" />
<glyph unicode="&#xbd;" horiz-adv-x="694" d="M149 32l267 596q7 15 22 15q5 0 10 -1q15 -5 15 -20q0 -6 -3 -11l-267 -600q-5 -13 -19 -13q-6 0 -13 4q-14 6 -14 20q0 5 2 10zM57 580l75 53q7 5 19 5q14 0 22 -8t8 -22v-291q0 -10 -6.5 -16.5t-16.5 -6.5q-9 0 -15.5 6.5t-6.5 15.5v265l-52 -33q-9 -6 -17 -6 q-10 0 -15 8q-5 6 -5 13q0 9 10 17zM447 345h83q47 0 76.5 -25t29.5 -70v-14q0 -35 -13.5 -58.5t-41.5 -51.5l-87 -82h135q8 0 15.5 -7t7.5 -15t-7.5 -15t-15.5 -7h-182q-10 0 -18 8t-8 18t8 18l120 114q14 13 22 22t15 24.5t7 31.5v14q0 24 -18 37.5t-45 13.5h-83 q-8 0 -15 6.5t-7 15t7 15.5t15 7z" />
<glyph unicode="&#xbe;" horiz-adv-x="712" d="M207 32l267 596q7 15 22 15q5 0 10 -1q15 -5 15 -20q0 -6 -2 -11l-268 -600q-5 -13 -18 -13q-7 0 -14 4q-14 6 -14 20q0 5 2 10zM68 638h101q39 0 66 -28t27 -69q0 -46 -37 -71q37 -27 37 -79q0 -42 -27 -69.5t-66 -27.5h-101q-10 0 -16.5 6.5t-6.5 16.5q0 7 7 14t16 7 h101q21 0 35 15t14 38q0 25 -14 41.5t-35 16.5h-62q-10 0 -16 6t-6 17q0 8 6 14.5t15 6.5h66q19 0 32.5 13.5t13.5 34.5q0 23 -14 38t-35 15h-101q-10 0 -16.5 7t-6.5 17q0 6 7 13t16 7zM420 124l80 199q7 17 23 17q5 0 10 -2q11 -5 11 -19q0 -5 -2 -10l-77 -191 q-1 -2 -1 -4q0 -1 1 -2q1 -3 5 -3h100v64q0 9 6.5 15.5t15.5 6.5q10 0 16.5 -6.5t6.5 -14.5v-65h34q9 0 15.5 -6t6.5 -15.5t-6 -16t-16 -6.5h-34v-43q0 -10 -6.5 -16.5t-16.5 -6.5q-9 0 -15.5 6.5t-6.5 15.5v44h-109q-21 0 -32.5 13t-11.5 30q0 9 3 16z" />
<glyph unicode="&#xbf;" horiz-adv-x="455" d="M290 504v-41q0 -12 -9.5 -21t-23.5 -9q-13 0 -22.5 9t-9.5 21v39q0 14 9.5 23t22.5 9q14 0 23.5 -9t9.5 -21zM288 305v-24q0 -37 -14 -60t-47 -53l-61 -57q-56 -50 -56 -108q0 -115 133 -115h134q15 0 23.5 -8t8.5 -21q0 -11 -8.5 -19.5t-21.5 -8.5h-136q-92 0 -144 44 t-52 128q0 43 19 78.5t58 70.5l65 59q38 35 38 70v22q0 14 8.5 22t22.5 8q13 0 21.5 -8t8.5 -20z" />
<glyph unicode="&#xc0;" d="M365 784l-149 69q-17 8 -17 25q0 6 2 12q8 16 25 16q7 0 13 -3l151 -72q17 -8 17 -25q0 -6 -2 -11q-8 -14 -24 -14q-8 0 -16 3zM38 38l182 602q8 27 31 43.5t52 16.5t51.5 -16.5t31.5 -43.5l182 -605q1 -4 1 -7q0 -11 -8 -19t-21 -9q-11 -1 -20 5.5t-12 16.5l-58 185 h-294l-58 -184q-3 -11 -12 -17.5t-20 -5.5q-14 1 -21.5 9t-7.5 20q0 4 1 9zM433 265l-108 360q-6 17 -21.5 17t-21.5 -17l-109 -360h260z" />
<glyph unicode="&#xc1;" d="M216 831l151 72q6 3 13 3q17 0 25 -16q3 -6 3 -12q0 -16 -22 -26l-145 -68q-8 -3 -16 -3q-16 0 -24 14q-3 5 -3 11q0 17 18 25zM38 38l182 602q8 27 31 43.5t52 16.5t51.5 -16.5t31.5 -43.5l182 -605q1 -4 1 -7q0 -11 -8 -19t-21 -8q-11 -2 -20 4.5t-12 16.5l-58 185 h-294l-58 -184q-3 -11 -12 -17.5t-20 -5.5q-14 1 -21.5 9t-7.5 20q0 4 1 9zM433 265l-108 360q-6 17 -21.5 17t-21.5 -17l-109 -360h260z" />
<glyph unicode="&#xc2;" d="M180 804l82 91q16 20 41 20q21 0 36 -18l85 -91q8 -9 8 -18.5t-8 -16.5q-8 -8 -19 -8q-13 0 -23 10l-68 74q-5 5 -11 5t-11 -5l-69 -74q-9 -10 -22 -10q-11 0 -18 7q-9 7 -9 18q0 9 6 16zM38 38l182 602q8 27 31 43.5t52.5 16.5t51.5 -16.5t31 -43.5l182 -605q1 -4 1 -7 q0 -11 -8 -19t-21 -8q-11 -2 -20 4.5t-12 16.5l-58 185h-294l-58 -184q-3 -11 -12 -17.5t-20 -5.5q-14 1 -21.5 9t-7.5 20q0 4 1 9zM433 265l-108 360q-6 17 -21.5 17t-21.5 -17l-109 -360h260z" />
<glyph unicode="&#xc3;" d="M243 884q17 1 31.5 -3.5t21.5 -9.5t18 -14l3 -3q31 -25 54 -23q16 1 46 28q6 6 16 6q13 0 21 -8q7 -8 7 -18t-7 -18q-17 -15 -40 -30t-41 -16q-17 -1 -33 4.5t-22 10t-22 17.5q-29 23 -47 23h-7q-22 -4 -52 -30q-8 -6 -17 -6q-11 0 -20 8q-7 8 -7 17q0 12 10 22 q47 41 87 43zM38 38l182 602q8 27 31 43.5t52 16.5t51.5 -16.5t31.5 -43.5l182 -605q1 -4 1 -7q0 -11 -8 -19t-21 -8q-11 -2 -20 4.5t-12 16.5l-58 185h-295l-57 -184q-3 -11 -12 -17.5t-20 -5.5q-14 1 -21.5 9t-7.5 20q0 4 1 9zM433 265l-108 360q-6 17 -21.5 17t-21.5 -17 l-109 -360h260z" />
<glyph unicode="&#xc4;" d="M350 848v28q0 12 8 20t21 8t21 -8t8 -20v-28q0 -11 -8 -19t-21 -8t-21 7.5t-8 19.5zM198 848v28q0 12 8 20t21 8t21 -8t8 -20v-28q0 -11 -8 -19t-21 -8t-21 7.5t-8 19.5zM38 38l182 602q8 27 31 43.5t52 16.5t51.5 -16.5t31.5 -43.5l182 -605q1 -4 1 -7q0 -11 -8 -19 t-21 -8q-11 -2 -20 4.5t-12 16.5l-58 185h-294l-58 -184q-3 -11 -12 -17.5t-20 -5.5q-14 1 -21.5 9t-7.5 20q0 4 1 9zM433 265l-108 360q-6 17 -21.5 17t-21.5 -17l-109 -360h260z" />
<glyph unicode="&#xc5;" d="M302.5 924q41.5 0 71.5 -29.5t30 -70.5q0 -40 -30 -69.5t-71.5 -29.5t-71 29t-29.5 70t29.5 70.5t71 29.5zM303 878q-21 0 -36.5 -16t-15.5 -38t15 -37.5t37 -15.5t37 15.5t15 37.5t-15.5 38t-36.5 16zM38 38l182 602q8 27 31 43.5t52 16.5t51.5 -16.5t31.5 -43.5 l182 -605q1 -4 1 -7q0 -11 -8 -19t-21 -8q-11 -2 -20 4.5t-12 16.5l-58 185h-294l-58 -184q-3 -11 -12 -17.5t-20 -5.5q-14 1 -21.5 9t-7.5 20q0 4 1 9zM433 265l-108 360q-6 17 -21.5 17t-21.5 -17l-109 -360h260z" />
<glyph unicode="&#xc6;" horiz-adv-x="775" d="M356 700h340q16 0 25 -8.5t9 -21t-9 -21t-23 -8.5h-328v-248h269q14 0 23.5 -8.5t9.5 -20.5q0 -13 -9 -21.5t-22 -8.5h-271v-275h326q16 0 25 -8.5t9 -21t-9 -21t-23 -8.5h-342q-21 0 -35 13.5t-14 33.5v160h-151l-58 -184q-3 -11 -12 -17.5t-20 -5.5q-14 1 -21.5 9 t-7.5 20q0 4 1 9l182 602q8 27 31 43.5t52 16.5q16 0 30 -5q11 5 23 5zM307 265v374q-1 2 -5 2q-14 1 -20 -17l-109 -359h134z" />
<glyph unicode="&#xc7;" horiz-adv-x="553" d="M306 700h171q12 0 21 -8.5t9 -20t-9 -20t-21 -8.5h-171q-175 0 -175 -186v-220q0 -80 46.5 -130t128.5 -50h169q14 0 23 -8.5t9 -20t-9 -20t-21 -8.5h-171q-17 0 -32 2v-40q39 0 54 -15t15 -52q0 -41 -19.5 -58t-61.5 -17h-32q-19 0 -19 18q0 8 4.5 13t12.5 5h33 q20 0 26 9t6 29q0 19 -6 27t-26 8q-28 1 -28 32v48q-79 19 -122 79.5t-43 148.5v220q0 243 238 243z" />
<glyph unicode="&#xc8;" horiz-adv-x="562" d="M355 788l-148 69q-18 8 -18 25q0 6 3 12q7 16 24 16q7 0 14 -3l150 -72q18 -8 18 -25q0 -6 -3 -11q-8 -14 -23 -14q-8 0 -17 3zM93 47v606q0 20 14 33.5t35 13.5h340q16 0 25 -8.5t9 -21t-9 -21t-23 -8.5h-328v-248h269q15 0 24 -8.5t9 -20.5q0 -13 -9 -21.5t-22 -8.5 h-271v-275h326q16 0 25 -8.5t9 -21t-9 -21t-23 -8.5h-342q-21 0 -35 13.5t-14 33.5z" />
<glyph unicode="&#xc9;" horiz-adv-x="562" d="M206 835l151 72q7 3 13 3q17 0 25 -16q3 -6 3 -12q0 -17 -22 -26l-144 -68q-9 -3 -17 -3q-16 0 -23 14q-3 5 -3 11q0 17 17 25zM93 47v606q0 20 14 33.5t35 13.5h340q16 0 25 -8.5t9 -21t-9 -21t-23 -8.5h-328v-248h269q15 0 24 -8.5t9 -20.5q0 -13 -9 -21.5t-22 -8.5 h-271v-275h326q16 0 25 -8.5t9 -21t-9 -21t-23 -8.5h-342q-21 0 -35 13.5t-14 33.5z" />
<glyph unicode="&#xca;" horiz-adv-x="562" d="M283 851l-70 -74q-8 -10 -22 -10q-10 0 -18 7t-8 18q0 9 5 16l82 91q16 20 42 20q21 0 36 -18l84 -91q8 -9 8 -18.5t-8 -16.5q-8 -8 -19 -8q-13 0 -22 10l-69 74q-5 5 -10.5 5t-10.5 -5zM93 47v606q0 20 14 33.5t35 13.5h340q16 0 25 -8.5t9 -21t-9 -21t-23 -8.5h-328 v-248h269q15 0 24 -8.5t9 -20.5q0 -13 -9 -21.5t-22 -8.5h-271v-275h326q16 0 25 -8.5t9 -21t-8.5 -21t-23.5 -8.5h-342q-21 0 -35 13.5t-14 33.5z" />
<glyph unicode="&#xcb;" horiz-adv-x="562" d="M341 852v28q0 12 7.5 20t20.5 8t21 -8t8 -20v-28q0 -11 -8 -19t-21 -8t-20.5 7.5t-7.5 19.5zM189 852l-1 28q0 12 8 20t21 8t21 -8t8 -20v-28q0 -11 -8 -19t-21 -8t-20.5 7.5t-7.5 19.5zM93 47v606q0 20 14 33.5t35 13.5h340q16 0 25 -8.5t9 -21t-9 -21t-23 -8.5h-328 v-248h269q15 0 24 -8.5t9 -20.5q0 -13 -9 -21.5t-22 -8.5h-271v-275h326q16 0 25 -8.5t9 -21t-9 -21t-23 -8.5h-342q-21 0 -35 13.5t-14 33.5z" />
<glyph unicode="&#xcc;" horiz-adv-x="248" d="M186 788l-148 69q-18 8 -18 25q0 6 3 12q7 16 25 16q6 0 13 -3l151 -72q17 -8 17 -25q0 -6 -3 -11q-7 -14 -23 -14q-8 0 -17 3zM93 30v640q0 13 9 21.5t22.5 8.5t22.5 -9t9 -23v-636q0 -14 -9 -23t-22.5 -9t-22.5 8.5t-9 21.5z" />
<glyph unicode="&#xcd;" horiz-adv-x="248" d="M38 835l150 72q7 3 13 3q17 0 25 -16q3 -6 3 -12q0 -17 -21 -26l-145 -68q-8 -3 -16 -3q-17 0 -24 14q-3 5 -3 11q0 17 18 25zM93 30v640q0 13 9 21.5t22.5 8.5t22.5 -9t9 -23v-636q0 -14 -9 -23t-22.5 -9t-22.5 8.5t-9 21.5z" />
<glyph unicode="&#xce;" horiz-adv-x="248" d="M114 851l-70 -74q-8 -10 -21 -10q-11 0 -19 7t-8 18q0 9 6 16l81 91q16 20 42 20q21 0 36 -18l85 -91q7 -9 7 -18.5t-7 -16.5q-9 -8 -20 -8q-13 0 -22 10l-69 74q-5 5 -10.5 5t-10.5 -5zM93 30v640q0 13 9 21.5t22.5 8.5t22.5 -9t9 -23v-636q0 -14 -9 -23t-22.5 -9 t-22.5 8.5t-9 21.5z" />
<glyph unicode="&#xcf;" horiz-adv-x="248" d="M172 852v28q0 12 7.5 20t20.5 8t21.5 -8t8.5 -20v-28q0 -11 -8.5 -19t-21.5 -8t-20.5 7.5t-7.5 19.5zM20 852v28q0 12 7.5 20t20.5 8t21.5 -8t8.5 -20v-28q0 -11 -8.5 -19t-21.5 -8t-20.5 7.5t-7.5 19.5zM93 30v640q0 13 9 21.5t22.5 8.5t22.5 -9t9 -23v-636 q0 -14 -9 -23t-22.5 -9t-22.5 8.5t-9 21.5z" />
<glyph unicode="&#xd0;" horiz-adv-x="651" d="M154 700h193q238 0 238 -243v-220q0 -107 -63 -172t-175 -65h-193q-21 0 -35 13.5t-14 33.5v265h-53q-12 0 -21 8.5t-9 21.5q0 11 8.5 19.5t21.5 8.5h53v283q0 20 14 33.5t35 13.5zM521 237v220q0 186 -174 186h-179v-273h156q13 0 21.5 -8.5t8.5 -20.5q0 -13 -8 -21 t-22 -8h-156v-255h179q82 0 128 50t46 130z" />
<glyph unicode="&#xd1;" horiz-adv-x="676" d="M279 884q17 1 31 -3.5t21.5 -9.5t18.5 -14l3 -3q31 -25 54 -23q16 1 46 28q6 6 16 6q12 0 21 -8q6 -8 6 -18t-7 -18q-16 -15 -39.5 -30t-41.5 -16q-17 -1 -32.5 4.5t-21.5 10t-22 17.5q-29 23 -47 23h-7q-23 -4 -53 -30q-7 -6 -16 -6q-11 0 -20 8q-8 8 -8 17q0 12 11 22 q47 41 87 43zM531 79v591q0 13 9 21.5t23 8.5q13 0 22 -8.5t9 -21.5v-593q0 -33 -22.5 -55t-56.5 -22q-23 0 -42.5 12.5t-28.5 32.5l-265 581q-8 18 -20 16q-13 -1 -13 -21v-591q0 -13 -9 -21.5t-22 -8.5q-14 0 -23 8.5t-9 21.5v593q0 33 23 55t56 22q23 0 42.5 -12.5 t29.5 -32.5l265 -581q8 -18 20 -16t12 21z" />
<glyph unicode="&#xd2;" horiz-adv-x="656" d="M390 788l-148 69q-18 8 -18 25q0 6 3 11q7 16 24 16q7 0 14 -3l150 -71q18 -9 18 -25q0 -6 -3 -12q-8 -14 -23 -14q-8 0 -17 4zM306 700h46q237 0 237 -243v-220q0 -107 -62.5 -172t-174.5 -65h-46q-111 0 -174.5 65t-63.5 172v220q0 243 238 243zM132 457v-220 q0 -80 46 -130t128 -50h46q82 0 128 50t46 130v220q0 186 -174 186h-46q-174 0 -174 -186z" />
<glyph unicode="&#xd3;" horiz-adv-x="656" d="M241 835l151 71q7 3 13 3q17 0 25 -16q3 -6 3 -11q0 -17 -22 -27l-144 -67q-9 -4 -17 -4q-16 0 -23 14q-3 6 -3 12q0 16 17 25zM306 700h46q237 0 237 -243v-220q0 -107 -62.5 -172t-174.5 -65h-46q-111 0 -174.5 65t-63.5 172v220q0 243 238 243zM132 457v-220 q0 -80 46 -130t128 -50h46q82 0 128 50t46 130v220q0 186 -174 186h-46q-174 0 -174 -186z" />
<glyph unicode="&#xd4;" horiz-adv-x="656" d="M318 850l-70 -74q-9 -9 -22 -9q-10 0 -18 7t-8 18q0 9 5 15l82 92q16 19 42 19q21 0 36 -18l84 -91q8 -8 8 -17.5t-8 -16.5q-8 -8 -19 -8q-13 0 -22 10l-69 73q-5 6 -10.5 6t-10.5 -6zM306 700h46q237 0 237 -243v-220q0 -107 -62.5 -172t-174.5 -65h-46 q-111 0 -174.5 65t-63.5 172v220q0 243 238 243zM132 457v-220q0 -80 46 -130t128 -50h46q82 0 128 50t46 130v220q0 186 -174 186h-46q-174 0 -174 -186z" />
<glyph unicode="&#xd5;" horiz-adv-x="656" d="M268 888q17 0 31.5 -4.5t21.5 -9t18 -13.5q2 -1 4 -3q30 -25 54 -24q15 2 46 29q6 6 15 6q13 0 21 -9q7 -7 7 -17.5t-7 -17.5q-16 -16 -39.5 -30.5t-41.5 -15.5q-17 -1 -32.5 4.5t-22 10t-22.5 16.5q-29 24 -47 24q-3 0 -6 -1q-23 -3 -53 -29q-8 -6 -17 -6q-11 0 -19 8 t-8 17q0 12 11 22q47 41 86 43zM306 700h46q237 0 237 -243v-220q0 -107 -62.5 -172t-174.5 -65h-46q-111 0 -174.5 65t-63.5 172v220q0 243 238 243zM132 457v-220q0 -80 46 -130t128 -50h46q82 0 128 50t46 130v220q0 186 -174 186h-46q-174 0 -174 -186z" />
<glyph unicode="&#xd6;" horiz-adv-x="656" d="M376 852v27q0 13 7.5 20.5t20.5 7.5t21 -7.5t8 -20.5v-27q0 -12 -8 -19.5t-21 -7.5t-20.5 7.5t-7.5 19.5zM223 852v27q0 13 8 20.5t21 7.5t21 -7.5t8 -20.5v-27q0 -12 -8 -19.5t-21 -7.5t-21 7.5t-8 19.5zM306 700h46q237 0 237 -243v-220q0 -107 -62.5 -172t-174.5 -65 h-46q-111 0 -174.5 65t-63.5 172v220q0 243 238 243zM132 457v-220q0 -80 46 -130t128 -50h46q82 0 128 50t46 130v220q0 186 -174 186h-46q-174 0 -174 -186z" />
<glyph unicode="&#xd7;" horiz-adv-x="458" d="M229 293l127 127q8 9 21 9q15 0 25 -12q6 -8 6 -17q0 -12 -11 -23l-126 -126l128 -128q8 -8 8 -20q0 -11 -7 -18q-9 -11 -23 -11q-13 0 -24 10l-124 125l-126 -125q-9 -9 -22 -9q-14 0 -22 9t-8 20q0 12 10 21l127 126l-128 127q-10 9 -10 21q0 10 7 19q9 10 23 10 q13 0 22 -9z" />
<glyph unicode="&#xd8;" horiz-adv-x="619" d="M439 684l32 72q7 16 25 16q7 0 13 -2q14 -6 14 -22q0 -7 -3 -14l-33 -74q84 -58 84 -203v-220q0 -107 -62.5 -172t-174.5 -65h-46q-49 0 -89 13l-34 -76q-7 -15 -25 -15q-7 0 -13 3q-14 8 -14 22q0 5 2 10l35 79q-48 30 -74 82t-26 119v220q0 243 238 243h46 q60 0 105 -16zM175 93l240 536q-35 14 -81 14h-46q-174 0 -174 -186v-220q0 -95 61 -144zM508 237v220q0 97 -48 143l-237 -533q30 -10 65 -10h46q82 0 128 50t46 130z" />
<glyph unicode="&#xd9;" horiz-adv-x="660" d="M392 784l-148 69q-18 8 -18 25q0 6 3 12q7 16 24 16q7 0 14 -3l150 -72q18 -8 18 -25q0 -6 -3 -11q-8 -14 -23 -14q-8 0 -17 3zM92 206v465q0 11 9.5 20t22.5 9q12 0 21 -9t9 -20v-465q0 -68 37 -109t88 -41h121q55 0 86 41t31 109v463q0 13 9 22t21 9q13 0 22.5 -9 t9.5 -20v-465q0 -93 -48.5 -150.5t-130.5 -57.5h-121q-79 0 -133 55.5t-54 152.5z" />
<glyph unicode="&#xda;" horiz-adv-x="660" d="M243 831l151 72q7 3 13 3q17 0 25 -16q3 -6 3 -12q0 -16 -22 -26l-144 -68q-9 -3 -17 -3q-16 0 -23 14q-3 5 -3 11q0 17 17 25zM92 206v465q0 11 9.5 20t22.5 9q12 0 21 -9t9 -20v-465q0 -68 37 -109t88 -41h121q55 0 86 41t31 109v463q0 13 9 22t21 9q13 0 22.5 -9 t9.5 -20v-465q0 -93 -48.5 -150.5t-130.5 -57.5h-121q-79 0 -133 55.5t-54 152.5z" />
<glyph unicode="&#xdb;" horiz-adv-x="660" d="M320 847l-70 -74q-8 -10 -22 -10q-10 0 -18 7t-8 18q0 9 5 16l82 91q16 20 42 20q21 0 36 -18l84 -91q8 -9 8 -18.5t-8 -16.5q-8 -8 -19 -8q-13 0 -22 10l-69 74q-5 5 -10.5 5t-10.5 -5zM92 206v465q0 11 9.5 20t22.5 9q12 0 21 -9t9 -20v-465q0 -68 37 -109t88 -41h121 q55 0 86 41t31 109v463q0 13 9 22t21 9q13 0 22.5 -9t9.5 -20v-465q0 -93 -48.5 -150.5t-130.5 -57.5h-121q-79 0 -133 55.5t-54 152.5z" />
<glyph unicode="&#xdc;" horiz-adv-x="660" d="M378 848v28q0 12 7.5 20t20.5 8t21 -8t8 -20v-28q0 -11 -8 -19t-21 -8t-20.5 7.5t-7.5 19.5zM226 848v28q0 12 7.5 20t20.5 8t21 -8t8 -20v-28q0 -11 -8 -19t-21 -8t-20.5 7.5t-7.5 19.5zM92 206v465q0 11 9.5 20t22.5 9q12 0 21 -9t9 -20v-465q0 -68 37 -109t88 -41h121 q55 0 86 41t31 109v463q0 13 9 22t21 9q13 0 22.5 -9t9.5 -20v-465q0 -93 -48.5 -150.5t-130.5 -57.5h-121q-79 0 -133 55.5t-54 152.5z" />
<glyph unicode="&#xdd;" horiz-adv-x="547" d="M187 831l151 72q6 3 13 3q17 0 25 -16q3 -6 3 -12q0 -16 -22 -26l-145 -68q-8 -3 -16 -3q-16 0 -24 14q-3 5 -3 11q0 17 18 25zM275 389l177 295q9 15 26 15h5q13 -1 20.5 -9.5t7.5 -19.5q0 -8 -4 -14l-201 -337v-289q0 -13 -8.5 -21.5t-22 -8.5t-22.5 8.5t-9 21.5v289 l-203 335q-4 7 -4 16q0 11 7 19t21 10h6q15 0 24 -14z" />
<glyph unicode="&#xde;" horiz-adv-x="564" d="M47 30v640q0 13 9 21.5t23 8.5q13 0 22 -8.5t9 -21.5v-88h208q94 0 147 -44t53 -126v-94q0 -85 -50.5 -137.5t-149.5 -52.5h-208v-98q0 -13 -9 -21.5t-22 -8.5q-14 0 -23 8.5t-9 21.5zM455 318v93q0 55 -35.5 84.5t-101.5 29.5h-208v-339h208q68 0 102.5 36.5t34.5 95.5z " />
<glyph unicode="&#xdf;" horiz-adv-x="574" d="M333 0h-124q-15 0 -23.5 8.5t-8.5 19.5t8.5 20t21.5 9h126q56 0 95.5 40t39.5 100q0 57 -40 98.5t-95 41.5h-17q-13 0 -21.5 8.5t-8.5 19.5t8.5 19.5t21.5 8.5q51 0 88 37t37 88t-37 88t-87 37h-34q-173 0 -173 -184v-428q0 -14 -9.5 -22.5t-22.5 -8.5t-22 8.5t-9 20.5 v430q0 241 236 241h34q76 0 130 -53.5t54 -128.5q0 -48 -24 -87t-64 -62q51 -20 83 -67t32 -105q0 -83 -57 -140t-138 -57z" />
<glyph unicode="&#xe0;" horiz-adv-x="472" d="M298 597l-148 69q-18 8 -18 24q0 6 3 12q7 16 25 16q6 0 13 -3l151 -72q17 -8 17 -25q0 -6 -3 -11q-7 -14 -23 -14q-8 0 -17 4zM272 455h-174q-15 0 -23 7.5t-8 19.5q0 11 8 19t21 8h179q60 0 99.5 -42t39.5 -104v-321q0 -18 -12.5 -30t-31.5 -12h-185q-61 0 -104 42 t-43 102t43 102.5t104 42.5h169v70q0 42 -22.5 69t-59.5 27zM185 56h169v178h-169q-35 0 -61.5 -27t-26.5 -63t26.5 -62t61.5 -26z" />
<glyph unicode="&#xe1;" horiz-adv-x="472" d="M150 643l150 72q7 3 13 3q17 0 25 -16q3 -6 3 -12q0 -16 -21 -26l-145 -67q-8 -4 -16 -4q-17 0 -24 14q-3 6 -3 12q0 16 18 24zM272 455h-174q-15 0 -23 7.5t-8 19.5q0 11 8 19t21 8h179q60 0 99.5 -42t39.5 -104v-321q0 -18 -12.5 -30t-31.5 -12h-185q-61 0 -104 42 t-43 102t43 102.5t104 42.5h169v70q0 42 -22.5 69t-59.5 27zM185 56h169v178h-169q-35 0 -61.5 -27t-26.5 -63t26.5 -62t61.5 -26z" />
<glyph unicode="&#xe2;" horiz-adv-x="472" d="M226 659l-70 -74q-8 -9 -21 -9q-11 0 -19 6q-8 7 -8 19q0 9 6 15l82 92q15 19 41 19q21 0 36 -18l85 -91q7 -9 7 -18.5t-7 -16.5q-9 -7 -20 -7q-13 0 -22 10l-69 73q-5 5 -10.5 5t-10.5 -5zM272 455h-174q-15 0 -23 7.5t-8 19.5q0 11 8 19t21 8h179q60 0 99.5 -42 t39.5 -104v-321q0 -18 -12.5 -30t-31.5 -12h-185q-61 0 -104 42t-43 102t43 102.5t104 42.5h169v70q0 42 -22.5 69t-59.5 27zM185 56h169v178h-169q-35 0 -61.5 -27t-26.5 -63t26.5 -62t61.5 -26z" />
<glyph unicode="&#xe3;" horiz-adv-x="472" d="M177 696q16 1 30.5 -3.5t22 -9t18.5 -14.5q1 0 3 -2q31 -26 54 -24q16 1 46 28q6 7 16 7q12 0 21 -9q6 -7 6 -17.5t-7 -18.5q-16 -15 -39.5 -29.5t-41.5 -16.5q-17 -1 -32.5 4.5t-21.5 10t-22 17.5q-29 24 -47 24q-4 0 -7 -1q-23 -3 -53 -30q-7 -6 -16 -6q-12 0 -20 9 q-8 7 -8 17q0 11 11 21q47 42 87 43zM272 455h-174q-15 0 -23 7.5t-8 19.5q0 11 8 19t21 8h179q60 0 99.5 -42t39.5 -104v-321q0 -18 -12.5 -30t-31.5 -12h-185q-61 0 -104 42t-43 102t43 103t104 43h169v69q0 42 -22.5 69t-59.5 27zM185 56h169v178h-169q-35 0 -61.5 -27 t-26.5 -63t26.5 -62t61.5 -26z" />
<glyph unicode="&#xe4;" horiz-adv-x="472" d="M284 661v27q0 12 7.5 20t20.5 8t21.5 -8t8.5 -20v-27q0 -12 -8 -19.5t-21.5 -7.5t-21 7.5t-7.5 19.5zM132 661v27q0 12 7.5 20t20.5 8t21.5 -8t8.5 -20v-27q0 -12 -8.5 -19.5t-21.5 -7.5t-20.5 7.5t-7.5 19.5zM272 455h-174q-15 0 -23 7.5t-8 19.5q0 11 8 19t21 8h179 q60 0 99.5 -42t39.5 -104v-321q0 -18 -12.5 -30t-31.5 -12h-185q-61 0 -104 42t-43 102t43 102.5t104 42.5h169v70q0 42 -22.5 69t-59.5 27zM185 56h169v178h-169q-35 0 -61.5 -27t-26.5 -63t26.5 -62t61.5 -26z" />
<glyph unicode="&#xe5;" horiz-adv-x="472" d="M236.5 736q41.5 0 71.5 -29.5t30 -69.5q0 -41 -30 -70.5t-71.5 -29.5t-71 29.5t-29.5 70.5q0 40 29.5 69.5t71 29.5zM237 690q-22 0 -37 -15.5t-15 -37.5q0 -23 15 -38.5t37 -15.5q21 0 36.5 15.5t15.5 38.5q0 21 -15.5 37t-36.5 16zM96 509h179q60 0 99.5 -42t39.5 -104 v-321q0 -18 -12.5 -30t-31.5 -12h-185q-61 0 -104 42t-43 102t43 102.5t104 42.5h169v70q0 42 -22.5 69t-59.5 27h-174q-15 0 -23 7.5t-8 19.5q0 11 8 19t21 8zM354 56v178h-169q-35 0 -61.5 -27t-26.5 -63t26.5 -62t61.5 -26h169z" />
<glyph unicode="&#xe6;" horiz-adv-x="780" d="M96 509h179q41 0 72.5 -22t45.5 -59q22 39 62 60t89 21q93 0 144 -50.5t51 -143.5v-47q0 -18 -12.5 -30t-31.5 -12h-279v-28q4 -78 31.5 -111t93.5 -33h152q14 0 22 -7.5t8 -19.5t-8 -19.5t-20 -7.5h-154q-96 0 -129 61l-9 -39q-7 -22 -33 -22h-185q-61 0 -104 42 t-43 102t43 102.5t104 42.5h169v70q0 42 -22.5 69t-59.5 27h-174q-15 0 -23 7.5t-8 19.5q0 11 8 19t21 8zM678 276v43q-1 136 -134 136q-57 0 -91 -34t-38 -92v-53h263zM354 56v178h-169q-35 0 -61.5 -27t-26.5 -63t26.5 -62t61.5 -26h169z" />
<glyph unicode="&#xe7;" horiz-adv-x="429" d="M247 509h112q13 0 21 -8t8 -19q0 -12 -8 -19.5t-21 -7.5h-112q-71 0 -104.5 -37.5t-33.5 -112.5v-95q0 -156 138 -156h112q13 0 21 -8t8 -19q0 -12 -8 -19.5t-21 -7.5h-112q-18 0 -35 2v-40q39 0 54 -15t15 -52q0 -41 -19.5 -58t-61.5 -17h-32q-19 0 -19 18q0 8 4.5 13 t12.5 5h33q20 0 26 9t6 29q0 17 -5.5 26t-19.5 9q-19 1 -26.5 8.5t-7.5 23.5v49q-122 34 -122 201v94q0 100 49.5 152t147.5 52z" />
<glyph unicode="&#xe8;" horiz-adv-x="476" d="M300 595l-148 69q-18 8 -18 25q0 6 3 12q7 16 24 16q7 0 14 -3l150 -72q18 -8 18 -25q0 -6 -3 -11q-8 -14 -23 -14q-8 0 -17 3zM50 237v78q0 89 54 141.5t136 52.5q93 0 143.5 -50.5t50.5 -143.5v-47q0 -18 -12.5 -30t-31.5 -12h-279q1 -94 28 -133t98 -39h152 q13 0 21 -7.5t8 -19.5t-7.5 -19.5t-20.5 -7.5h-154q-106 0 -146 56t-40 181zM374 276v43q-2 136 -134 136q-59 0 -94 -37t-36 -98v-44h264z" />
<glyph unicode="&#xe9;" horiz-adv-x="476" d="M151 642l151 72q6 3 13 3q17 0 25 -16q3 -6 3 -12q0 -16 -22 -26l-144 -68q-9 -3 -17 -3q-16 0 -23 14q-3 5 -3 11q0 17 17 25zM50 237v78q0 89 54 141.5t136 52.5q93 0 143.5 -50.5t50.5 -143.5v-47q0 -18 -12.5 -30t-31.5 -12h-279q1 -94 28 -133t98 -39h152 q13 0 21 -7.5t8 -19.5t-7.5 -19.5t-20.5 -7.5h-154q-106 0 -146 56t-40 181zM374 276v43q-2 136 -134 136q-59 0 -94 -37t-36 -98v-44h264z" />
<glyph unicode="&#xea;" horiz-adv-x="476" d="M228 658l-70 -74q-9 -10 -22 -10q-10 0 -18 7t-8 18q0 9 5 16l82 91q16 20 42 20q21 0 36 -18l84 -91q8 -9 8 -18.5t-8 -16.5q-8 -8 -19 -8q-13 0 -22 10l-69 74q-5 5 -10.5 5t-10.5 -5zM50 237v78q0 89 54 141.5t136 52.5q93 0 143.5 -50.5t50.5 -143.5v-47 q0 -18 -12.5 -30t-31.5 -12h-279q1 -94 28 -133t98 -39h152q13 0 21 -7.5t8 -19.5t-7.5 -19.5t-20.5 -7.5h-154q-106 0 -146 56t-40 181zM374 276v43q-2 136 -134 136q-59 0 -94 -37t-36 -98v-44h264z" />
<glyph unicode="&#xeb;" horiz-adv-x="476" d="M286 659v28q0 12 7.5 20t20.5 8t21 -8t8 -20v-28q0 -11 -8 -19t-21 -8t-20.5 7.5t-7.5 19.5zM133 659v28q0 12 8 20t21 8t21 -8t8 -20v-28q0 -11 -8 -19t-21 -8t-21 7.5t-8 19.5zM50 237v78q0 89 54 141.5t136 52.5q93 0 143.5 -50.5t50.5 -143.5v-47q0 -18 -12.5 -30 t-31.5 -12h-279q1 -94 28 -133t98 -39h152q13 0 21 -7.5t8 -19.5t-7.5 -19.5t-20.5 -7.5h-154q-106 0 -146 56t-40 181zM374 276v43q-2 136 -134 136q-59 0 -94 -37t-36 -98v-44h264z" />
<glyph unicode="&#xec;" horiz-adv-x="200" d="M163 593l-149 69q-18 9 -18 26q0 5 3 11q8 16 25 16q7 0 13 -3l151 -72q17 -8 17 -25q0 -6 -2 -11q-8 -14 -24 -14q-8 0 -16 3zM75 28v452q0 13 8 21t21 8t21.5 -8t8.5 -21v-452q0 -13 -8 -20.5t-21.5 -7.5t-21.5 7.5t-8 20.5z" />
<glyph unicode="&#xed;" horiz-adv-x="200" d="M14 640l151 72q6 3 13 3q17 0 25 -16q3 -6 3 -12q0 -16 -22 -26l-145 -68q-8 -3 -16 -3q-16 0 -24 14q-2 5 -2 11q0 16 17 25zM75 28v452q0 13 8 21t21 8t21.5 -8t8.5 -21v-452q0 -13 -8 -20.5t-21.5 -7.5t-21.5 7.5t-8 20.5z" />
<glyph unicode="&#xee;" horiz-adv-x="200" d="M90 656l-69 -74q-9 -10 -22 -10q-11 0 -18 7q-9 7 -9 19q0 8 6 15l82 91q16 20 41 20q21 0 36 -18l85 -91q7 -9 7 -18.5t-7 -16.5q-8 -8 -20 -8q-13 0 -22 10l-68 74q-5 5 -11 5t-11 -5zM75 28v452q0 13 8 21t21 8t21.5 -8t8.5 -21v-452q0 -13 -8 -20.5t-21.5 -7.5 t-21.5 7.5t-8 20.5z" />
<glyph unicode="&#xef;" horiz-adv-x="200" d="M148 657v28q0 12 8 20t21 8t21 -8t8 -20v-28q0 -11 -8 -19t-21 -8t-21 7.5t-8 19.5zM-4 657v28q0 12 8 20t20 8q14 0 22 -8t8 -20v-28q0 -11 -8 -19t-22 -8q-12 0 -20 7.5t-8 19.5zM75 28v452q0 13 8 21t21 8t21.5 -8t8.5 -21v-452q0 -13 -8 -20.5t-21.5 -7.5t-21.5 7.5 t-8 20.5z" />
<glyph unicode="&#xf0;" horiz-adv-x="535" d="M101 700h144q108 0 168 -50l42 39q7 6 16 6q11 0 19 -9q5 -7 5 -15q0 -10 -10 -19l-40 -38q44 -56 44 -154v-230q0 -120 -55.5 -175.5t-167.5 -55.5q-106 0 -162.5 54t-56.5 143v41q0 176 213 177h166v51q0 70 -37 105l-69 -68q-7 -6 -16 -6q-11 0 -20 11q-4 6 -4 14 q0 11 9 18l71 69q-42 35 -114 35h-147q-12 0 -21 9t-9 20t9 19.5t23 8.5zM426 231v126h-164q-151 0 -151 -120v-41q0 -66 38 -103t117 -37q83 0 121.5 39.5t38.5 135.5z" />
<glyph unicode="&#xf1;" horiz-adv-x="507" d="M194 693q17 1 31.5 -3.5t21.5 -9.5t18 -14l3 -3q31 -25 54 -23q16 1 46 28q6 6 16 6q13 0 21 -8q7 -8 7 -18t-7 -18q-17 -15 -40 -30t-41 -16q-17 -1 -32.5 4.5t-22 10t-22.5 17.5q-29 23 -47 23h-7q-22 -4 -52 -30q-8 -6 -17 -6q-11 0 -20 8q-7 8 -7 17q0 12 10 22 q47 41 87 43zM112 509h178q66 0 112.5 -46t46.5 -121v-313q0 -12 -9 -20.5t-22 -8.5q-12 0 -20.5 8.5t-8.5 20.5v313q0 50 -27.5 81.5t-71.5 31.5h-163v-425q0 -13 -9 -21.5t-21 -8.5q-14 0 -22 8.5t-8 20.5v436q0 18 12.5 31t32.5 13z" />
<glyph unicode="&#xf2;" horiz-adv-x="498" d="M311 597l-149 69q-18 8 -18 25q0 6 3 12q8 16 25 16q7 0 13 -3l151 -72q17 -8 17 -25q0 -6 -2 -11q-8 -14 -24 -14q-8 0 -16 3zM280 -4h-61q-73 0 -121 48.5t-48 125.5v154q0 79 48 131.5t121 52.5h61q72 0 120 -52.5t48 -131.5v-154q0 -77 -48 -125.5t-120 -48.5z M219 48h61q48 0 78.5 34t30.5 85v162q0 53 -31 90t-78 37h-61q-48 0 -78.5 -37t-30.5 -90v-162q0 -51 30.5 -85t78.5 -34z" />
<glyph unicode="&#xf3;" horiz-adv-x="498" d="M162 644l151 72q6 3 13 3q17 0 25 -16q3 -6 3 -12q0 -17 -22 -26l-145 -68q-8 -3 -16 -3q-16 0 -24 14q-3 5 -3 11q0 17 18 25zM280 -4h-61q-73 0 -121 48.5t-48 125.5v154q0 79 48 131.5t121 52.5h61q72 0 120 -52.5t48 -131.5v-154q0 -77 -48 -125.5t-120 -48.5z M219 48h61q48 0 78.5 34t30.5 85v162q0 53 -31 90.5t-78 37.5h-61q-48 0 -78.5 -37.5t-30.5 -90.5v-162q0 -51 30.5 -85t78.5 -34z" />
<glyph unicode="&#xf4;" horiz-adv-x="498" d="M238 660l-69 -74q-9 -10 -22 -10q-11 0 -18 7q-9 7 -9 18q0 9 6 16l82 91q16 20 41 20q21 0 36 -18l85 -91q8 -9 8 -18.5t-8 -16.5q-8 -8 -19 -8q-13 0 -23 10l-68 74q-5 5 -11 5t-11 -5zM280 -4h-61q-73 0 -121 48.5t-48 125.5v154q0 79 48 131.5t121 52.5h61 q72 0 120 -52.5t48 -131.5v-154q0 -77 -48 -125.5t-120 -48.5zM219 48h61q48 0 78.5 34t30.5 85v162q0 53 -31 90.5t-78 37.5h-61q-48 0 -78.5 -37.5t-30.5 -90.5v-162q0 -51 30.5 -85t78.5 -34z" />
<glyph unicode="&#xf5;" horiz-adv-x="498" d="M189 697q17 1 31.5 -3.5t21.5 -9.5t18 -14l3 -3q31 -25 54 -23q16 1 46 28q6 6 16 6q13 0 21 -9q7 -7 7 -17t-7 -18q-17 -15 -40 -30t-41 -16q-17 -1 -33 4.5t-22 10t-22 17.5q-29 23 -47 23h-7q-22 -4 -52 -30q-8 -6 -17 -6q-11 0 -20 8q-7 8 -7 17q0 12 10 22 q47 41 87 43zM280 -4h-61q-73 0 -121 48.5t-48 125.5v154q0 79 48 131.5t121 52.5h61q72 0 120 -52.5t48 -131.5v-154q0 -77 -48 -125.5t-120 -48.5zM219 48h61q48 0 78.5 34t30.5 85v162q0 53 -31 90.5t-78 37.5h-61q-48 0 -78.5 -37.5t-30.5 -90.5v-162q0 -51 30.5 -85 t78.5 -34z" />
<glyph unicode="&#xf6;" horiz-adv-x="498" d="M296 661v28q0 12 8 20t21 8t21 -8t8 -20v-28q0 -11 -8 -19t-21 -8t-21 7.5t-8 19.5zM144 661v28q0 12 8 20t21 8t21 -8t8 -20v-28q0 -11 -8 -19t-21 -8t-21 7.5t-8 19.5zM280 -4h-61q-73 0 -121 48.5t-48 125.5v154q0 79 48 131.5t121 52.5h61q72 0 120 -52.5t48 -131.5 v-154q0 -77 -48 -125.5t-120 -48.5zM219 48h61q48 0 78.5 34t30.5 85v162q0 53 -31 90.5t-78 37.5h-61q-48 0 -78.5 -37.5t-30.5 -90.5v-162q0 -51 30.5 -85t78.5 -34z" />
<glyph unicode="&#xf7;" horiz-adv-x="441" d="M188 507v39q0 12 9.5 21.5t23.5 9.5q13 0 23 -9.5t10 -21.5v-37q0 -14 -9.5 -23.5t-23.5 -9.5t-23.5 9t-9.5 22zM77 378h288q13 0 21.5 -8.5t8.5 -21t-8.5 -20.5t-21.5 -8h-288q-14 1 -22 9t-8 20q0 11 8.5 20t21.5 9zM188 150v38q0 13 9.5 22t23.5 9q13 0 23 -9t10 -22 v-36q0 -15 -10 -24t-23 -9q-14 0 -23.5 8.5t-9.5 22.5z" />
<glyph unicode="&#xf8;" horiz-adv-x="487" d="M320 502l29 65q7 16 25 16q7 0 13 -2q14 -6 14 -22q0 -7 -3 -14l-29 -66q34 -24 54 -65t20 -90v-154q0 -77 -48 -125.5t-120 -48.5h-61q-30 0 -56 9l-33 -74q-7 -15 -25 -15q-7 0 -13 3q-14 8 -14 22q0 5 2 10l35 79q-65 49 -65 140v154q0 79 48 131.5t121 52.5h61 q23 0 45 -6zM134 84l164 370q-11 2 -23 2h-61q-48 0 -78.5 -37t-30.5 -90v-162q0 -50 29 -83zM384 167v162q0 60 -38 98l-167 -374q17 -5 35 -5h61q48 0 78.5 34t30.5 85z" />
<glyph unicode="&#xf9;" horiz-adv-x="499" d="M312 597l-149 69q-17 8 -17 25q0 6 2 12q8 16 25 16q7 0 13 -3l151 -72q17 -8 17 -25q0 -6 -2 -11q-8 -14 -24 -14q-8 0 -16 3zM381 54v424q0 12 8.5 21.5t21.5 9.5t21.5 -9t8.5 -20v-436q0 -18 -12.5 -31t-33.5 -13h-177q-66 0 -113 45.5t-47 121.5v313q0 11 9 20t22 9 t21 -9t8 -20v-313q0 -49 30 -81t70 -32h163z" />
<glyph unicode="&#xfa;" horiz-adv-x="499" d="M163 644l151 72q6 3 13 3q17 0 25 -16q3 -6 3 -12q0 -17 -22 -26l-145 -68q-8 -3 -16 -3q-16 0 -24 14q-3 5 -3 11q0 17 18 25zM381 54v424q0 12 8.5 21.5t21.5 9.5t21.5 -9t8.5 -20v-436q0 -18 -12.5 -31t-33.5 -13h-177q-67 0 -113.5 45.5t-46.5 121.5v313q0 11 9 20 t22 9t21 -9t8 -20v-313q0 -49 30 -81t70 -32h163z" />
<glyph unicode="&#xfb;" horiz-adv-x="499" d="M240 660l-70 -74q-9 -10 -22 -10q-11 0 -18 7q-9 7 -9 18q0 9 6 16l82 91q16 20 41 20q21 0 36 -18l85 -91q7 -9 7 -18.5t-7 -16.5q-8 -8 -19 -8q-14 0 -23 10l-68 74q-5 5 -11 5t-10 -5zM381 54v424q0 12 8.5 21.5t21.5 9.5t21.5 -9t8.5 -20v-436q0 -18 -12.5 -31 t-33.5 -13h-177q-66 0 -113 45.5t-47 121.5v313q0 11 9 20t22 9t21 -9t8 -20v-313q0 -49 30 -81t70 -32h163z" />
<glyph unicode="&#xfc;" horiz-adv-x="499" d="M297 661v28q0 12 8 20t21 8t21 -8t8 -20v-28q0 -11 -8 -19t-21 -8t-21 7.5t-8 19.5zM145 661v28q0 12 8 20t21 8t21 -8t8 -20v-28q0 -11 -8 -19t-21 -8t-21 7.5t-8 19.5zM381 54v424q0 12 8.5 21.5t21.5 9.5t21.5 -9t8.5 -20v-436q0 -18 -12.5 -31t-33.5 -13h-177 q-67 0 -113.5 45.5t-46.5 121.5v313q0 11 9 20t22 9t21 -9t8 -20v-313q0 -49 30 -81t70 -32h163z" />
<glyph unicode="&#xfd;" horiz-adv-x="440" d="M134 642l150 71q7 3 13 3q17 0 25 -16q3 -6 3 -11q0 -17 -21 -27l-145 -67q-8 -4 -16 -4q-17 0 -24 14q-3 6 -3 12q0 16 18 25zM225 63l134 423q7 24 32 23q13 0 20 -7.5t7 -18.5q0 -5 -1 -10l-214 -677q-6 -20 -29 -19q-12 1 -19.5 9t-7.5 18q0 4 1 7l60 193l-13 2 q-28 7 -36 34l-134 433q-2 4 -2 8q0 10 7.5 18.5t19.5 8.5q24 3 32 -21l131 -423q2 -8 6 -8t6 7z" />
<glyph unicode="&#xfe;" horiz-adv-x="475" d="M48 -153v824q0 13 8 21t21 8t22 -8t9 -21v-162h159q42 0 75 -19t51 -49t26.5 -61t8.5 -61v-152q0 -76 -46.5 -121.5t-112.5 -45.5h-161v-153q0 -13 -9 -21.5t-22 -8.5q-12 0 -20.5 8.5t-8.5 21.5zM108 452v-398h161q40 0 69.5 32t29.5 81v150q0 59 -29 97t-72 38h-159z " />
<glyph unicode="&#xff;" horiz-adv-x="440" d="M116 659v27q0 13 7.5 20.5t20.5 7.5t21.5 -7.5t8.5 -20.5v-27q0 -12 -8.5 -19.5t-21.5 -7.5t-20.5 7.5t-7.5 19.5zM268 659v27q0 13 7.5 20.5t20.5 7.5t21.5 -7.5t8.5 -20.5v-27q0 -12 -8.5 -19.5t-21.5 -7.5t-20.5 7.5t-7.5 19.5zM225 63l134 423q7 24 32 23 q13 0 20 -7.5t7 -18.5q0 -5 -1 -10l-214 -677q-6 -20 -29 -19q-12 1 -19.5 9t-7.5 18q0 4 1 7l60 193l-13 2q-28 7 -36 34l-134 433q-2 4 -2 8q0 10 7.5 18.5t19.5 8.5q24 3 32 -21l131 -423q2 -8 6 -8t6 7z" />
<glyph unicode="&#x152;" horiz-adv-x="995" d="M576 700h340q15 0 24 -8.5t9 -21t-8.5 -21t-22.5 -8.5h-329v-248h269q15 0 24.5 -8.5t9.5 -20.5q0 -13 -9 -21.5t-23 -8.5h-271v-275h327q15 0 24 -8.5t9 -21t-8.5 -21t-22.5 -8.5h-342q-27 0 -32 21l-10 71q-53 -92 -182 -92h-46q-111 0 -174.5 65t-63.5 172v220 q0 243 238 243h46q134 0 183 -85l11 64q5 21 30 21zM526 237v220q0 186 -174 186h-46q-174 0 -174 -186v-220q0 -80 46 -130t128 -50h46q82 0 128 50t46 130z" />
<glyph unicode="&#x153;" horiz-adv-x="833" d="M219 508h61q46 0 83.5 -25t56.5 -67q21 44 63 68.5t96 24.5q93 0 143.5 -50.5t50.5 -143.5v-47q0 -18 -12.5 -30t-31.5 -12h-280q2 -97 29 -134.5t98 -37.5h152q13 0 21 -7.5t8 -19.5t-7.5 -19.5t-20.5 -7.5h-154q-63 0 -100 20.5t-55 64.5q-18 -41 -55.5 -65t-84.5 -24 h-61q-73 0 -121 48.5t-48 125.5v154q0 79 48 131.5t121 52.5zM389 167v162q0 53 -31 90.5t-78 37.5h-61q-48 0 -78.5 -37.5t-30.5 -90.5v-162q0 -51 30.5 -85t78.5 -34h61q48 0 78.5 34t30.5 85zM713 276v44q-2 135 -134 135q-59 0 -94 -36.5t-36 -98.5v-44h264z" />
<glyph unicode="&#x178;" horiz-adv-x="547" d="M321 848v28q0 12 8 20t21 8t21 -8t8 -20v-28q0 -11 -8 -19t-21 -8t-21 7.5t-8 19.5zM169 848v28q0 12 8 20t21 8t21 -8t8 -20v-28q0 -11 -8 -19t-21 -8t-21 7.5t-8 19.5zM275 389l177 295q9 15 26 15h5q13 -1 20.5 -9.5t7.5 -19.5q0 -8 -4 -14l-200 -337v-289 q0 -13 -9 -21.5t-22.5 -8.5t-22.5 8.5t-9 21.5v289l-203 335q-4 7 -4 16q0 11 7 19t21 10h6q15 0 24 -14z" />
<glyph unicode="&#x2c6;" horiz-adv-x="316" d="M148 656l-70 -74q-8 -10 -22 -10q-10 0 -18 7t-8 18q0 9 5 16l82 91q16 20 42 20q21 0 36 -18l85 -91q7 -9 7 -18.5t-7 -16.5q-9 -8 -20 -8q-13 0 -22 10l-69 74q-5 5 -10.5 5t-10.5 -5z" />
<glyph unicode="&#x2dc;" horiz-adv-x="377" d="M129 693q17 1 31.5 -3.5t21.5 -9.5t18 -14l3 -3q31 -25 54 -23q16 1 46 28q6 6 16 6q12 0 21 -8q6 -8 6 -18t-7 -18q-16 -15 -39.5 -30t-41.5 -16q-16 -1 -32 4.5t-22 10t-22 17.5q-29 23 -47 23h-7q-22 -4 -53 -30q-7 -6 -16 -6q-11 0 -20 8q-8 8 -8 17q0 12 11 22 q47 41 87 43z" />
<glyph unicode="&#x2000;" horiz-adv-x="462" />
<glyph unicode="&#x2001;" horiz-adv-x="924" />
<glyph unicode="&#x2002;" horiz-adv-x="462" />
<glyph unicode="&#x2003;" horiz-adv-x="924" />
<glyph unicode="&#x2004;" horiz-adv-x="308" />
<glyph unicode="&#x2005;" horiz-adv-x="231" />
<glyph unicode="&#x2006;" horiz-adv-x="154" />
<glyph unicode="&#x2007;" horiz-adv-x="154" />
<glyph unicode="&#x2008;" horiz-adv-x="115" />
<glyph unicode="&#x2009;" horiz-adv-x="184" />
<glyph unicode="&#x200a;" horiz-adv-x="51" />
<glyph unicode="&#x2010;" horiz-adv-x="425" d="M349 232h-271q-31 1 -31 30q0 11 8.5 19.5t21.5 8.5h272q13 0 21.5 -8.5t8.5 -20.5q0 -13 -8 -21t-22 -8z" />
<glyph unicode="&#x2011;" horiz-adv-x="425" d="M349 232h-271q-31 1 -31 30q0 11 8.5 19.5t21.5 8.5h272q13 0 21.5 -8.5t8.5 -20.5q0 -13 -8 -21t-22 -8z" />
<glyph unicode="&#x2012;" horiz-adv-x="425" d="M349 232h-271q-31 1 -31 30q0 11 8.5 19.5t21.5 8.5h272q13 0 21.5 -8.5t8.5 -20.5q0 -13 -8 -21t-22 -8z" />
<glyph unicode="&#x2013;" horiz-adv-x="506" d="M430 242h-353q-13 1 -21.5 9t-8.5 20q0 11 9 19.5t22 8.5h352q13 0 21.5 -8t8.5 -21q0 -12 -8.5 -20t-21.5 -8z" />
<glyph unicode="&#x2014;" horiz-adv-x="638" d="M561 242h-484q-13 1 -21.5 9t-8.5 20q0 11 9 19.5t22 8.5h483q13 0 21.5 -8t8.5 -21q0 -12 -8.5 -20t-21.5 -8z" />
<glyph unicode="&#x2018;" horiz-adv-x="182" d="M45 568v68q0 28 20 48.5t44 26.5q13 1 22 -6t10 -19q1 -2 1 -4q0 -12 -14 -19q-20 -12 -20 -35v-60q0 -12 -8.5 -21t-22.5 -9q-13 0 -22.5 9t-9.5 21z" />
<glyph unicode="&#x2019;" horiz-adv-x="183" d="M75 621v60q0 12 8.5 21t22.5 9q13 0 22 -9t9 -21v-68q0 -28 -19.5 -48.5t-44.5 -26.5q-13 -1 -21.5 6t-10.5 19v4q0 12 14 19q20 12 20 35z" />
<glyph unicode="&#x201a;" horiz-adv-x="183" d="M75 21v60q0 12 8.5 21t22.5 9q13 0 22 -9t9 -21v-68q0 -28 -19.5 -48.5t-44.5 -26.5q-13 -1 -21.5 6t-10.5 19v4q0 12 14 19q20 11 20 35z" />
<glyph unicode="&#x201c;" horiz-adv-x="318" d="M103 628v-60q0 -12 -8.5 -21t-21.5 -9t-22.5 9.5t-9.5 20.5v68q0 28 19.5 48.5t44.5 26.5q13 1 22 -6t10 -18v-4q0 -12 -14 -19q-20 -12 -20 -36zM240 628v-60q0 -12 -8.5 -21t-22.5 -9q-13 0 -22 9.5t-9 20.5v68q0 28 19.5 48.5t44.5 26.5q13 1 21.5 -6t10.5 -18v-4 q0 -12 -14 -19q-20 -12 -20 -36z" />
<glyph unicode="&#x201d;" horiz-adv-x="318" d="M212 621v60q0 12 8.5 21t21.5 9t22.5 -9t9.5 -21v-68q0 -28 -19.5 -48.5t-44.5 -26.5q-13 -1 -22 6t-10 19v4q0 12 13 19q21 12 21 35zM75 621v60q0 12 8.5 21t22.5 9q12 0 21.5 -9t9.5 -21v-68q0 -28 -19.5 -48.5t-44.5 -26.5q-13 -1 -22 6t-10 19v4q0 12 14 19 q20 12 20 35z" />
<glyph unicode="&#x201e;" horiz-adv-x="318" d="M75 21v60q0 12 8.5 21t22.5 9q13 0 22 -9t9 -21v-68q0 -28 -19.5 -48.5t-44.5 -26.5q-13 -1 -21.5 6t-10.5 19v4q0 12 14 19q20 11 20 35zM212 21v60q0 12 8.5 21t21.5 9t22.5 -9t9.5 -21v-68q0 -28 -19.5 -48.5t-44.5 -26.5q-13 -1 -22 6t-10 19v4q0 12 14 19 q20 11 20 35z" />
<glyph unicode="&#x2022;" horiz-adv-x="319" d="M51 311q0 43 31.5 75.5t76.5 32.5q44 0 77 -32.5t33 -75.5q0 -45 -32.5 -76.5t-77.5 -31.5t-76.5 31.5t-31.5 76.5z" />
<glyph unicode="&#x2026;" horiz-adv-x="466" d="M46 24v38q0 13 9 22t23.5 9t24 -9t9.5 -22v-36q0 -15 -9.5 -24.5t-23.5 -9.5t-23.5 9t-9.5 23zM200 24v38q0 13 9.5 22t23.5 9t23.5 -9t9.5 -22v-36q0 -15 -9.5 -24.5t-23.5 -9.5t-23.5 9t-9.5 23zM355 24v38q0 13 9 22t24 9q13 0 22.5 -9t9.5 -22v-36q0 -15 -9.5 -24.5 t-22.5 -9.5q-15 0 -24 9t-9 23z" />
<glyph unicode="&#x202f;" horiz-adv-x="184" />
<glyph unicode="&#x2039;" horiz-adv-x="279" d="M69 312l113 88q8 6 18 6q15 0 24 -11q5 -7 5 -16q0 -14 -11 -22l-97 -77q-6 -5 -6 -10.5t6 -10.5l95 -78q12 -10 12 -24q0 -9 -6 -17q-9 -10 -21 -10q-11 0 -19 7l-117 97q-19 16 -19 36q0 24 23 42z" />
<glyph unicode="&#x203a;" horiz-adv-x="279" d="M158 280l-97 77q-11 8 -11 22q0 9 5 16q9 11 23 11q11 0 19 -6l113 -88q23 -18 23 -42q0 -20 -19 -36l-117 -97q-8 -7 -19 -7q-12 0 -21 10q-7 8 -7 17q0 14 13 24l95 78q5 5 5 10.5t-5 10.5z" />
<glyph unicode="&#x205f;" horiz-adv-x="231" />
<glyph unicode="&#x20ac;" horiz-adv-x="589" d="M344 700h169q12 0 21 -8.5t9 -19.5t-9 -20t-21 -9h-169q-169 0 -173 -170v-15h274q11 0 19 -8t8 -19t-8 -18t-19 -7h-274v-111h274q11 0 19 -7.5t8 -19.5q0 -10 -8 -17t-19 -7h-273v-22q3 -75 48 -120t124 -45h167q14 0 23 -8.5t9 -19.5q0 -12 -9 -20.5t-21 -8.5h-169 q-108 0 -169.5 60t-65.5 161v23h-47q-12 1 -19.5 8t-7.5 17t8 18t20 8h46v111h-48q-11 2 -18.5 9t-7.5 17t8 18t20 8h46v16q4 226 235 226z" />
<glyph unicode="&#x2122;" horiz-adv-x="790" d="M66 700h252q10 0 17 -7.5t7 -16.5t-7.5 -16t-15.5 -7h-103v-338q0 -8 -7 -15.5t-15 -7.5q-9 0 -17 7.5t-8 15.5v338h-103q-9 0 -16 7t-7 16t7.5 16.5t15.5 7.5zM562 380l90 286q5 15 18 24.5t28 9.5q20 0 34.5 -14.5t14.5 -33.5v-337q0 -8 -7.5 -15.5t-16 -7.5t-16 7.5 t-7.5 15.5v298q0 9 -6 9q-4 0 -6 -7l-98 -302q-7 -21 -28 -21t-30 25l-89 296q-2 6 -7 6q-6 0 -6 -8v-296q0 -8 -7.5 -15.5t-16.5 -7.5t-16 7.5t-7 15.5v337q0 19 14.5 33.5t34.5 14.5q17 0 30 -9t17 -25z" />
<glyph unicode="&#x25fc;" horiz-adv-x="510" d="M0 510h510v-510h-510v510z" />
<glyph unicode="&#xfb01;" horiz-adv-x="535" d="M52 509h46q7 94 52.5 141.5t126.5 60.5q15 2 24 -6.5t9 -20.5q0 -22 -22 -27q-121 -18 -130 -148h125q12 0 20 -7.5t8 -19.5t-8 -19.5t-20 -7.5h-125v-426q0 -13 -9 -21t-22 -8t-21 8t-8 21v426h-46q-13 0 -21 7.5t-8 19.5t8 19.5t21 7.5zM410 647v19q0 13 7.5 21t21.5 8 q13 0 21.5 -8t8.5 -21v-19q0 -12 -8.5 -20t-22 -8t-21 8t-7.5 20zM410 28v452q0 13 7.5 21t21.5 8q13 0 21.5 -8t8.5 -21v-452q0 -13 -8.5 -20.5t-22 -7.5t-21 7.5t-7.5 20.5z" />
<glyph unicode="&#xfb02;" horiz-adv-x="527" d="M52 509h46q7 94 52.5 141.5t126.5 60.5q15 2 24 -6.5t9 -20.5q0 -22 -22 -27q-121 -18 -130 -148h125q12 0 20 -7.5t8 -19.5t-8 -19.5t-20 -7.5h-125v-426q0 -13 -9 -21t-22 -8t-21 8t-8 21v426h-46q-13 0 -21 7.5t-8 19.5t8 19.5t21 7.5zM410 29v642q0 13 8 21t22 8 q13 0 21.5 -8.5t8.5 -22.5v-639q0 -13 -8.5 -21.5t-21.5 -8.5q-14 0 -22 8t-8 21z" />
</font>
</defs>
</svg>
