<?xml version="1.0" standalone="no"?>
<!DOCTYPE svg PUBLIC "-//W3C//DTD SVG 1.1//EN" "http://www.w3.org/Graphics/SVG/1.1/DTD/svg11.dtd" >
<svg xmlns="http://www.w3.org/2000/svg">
<metadata></metadata>
<defs>
<font id="oregon_ldo_mediumregular" horiz-adv-x="688" >
<font-face units-per-em="2048" ascent="1638" descent="-410" />
<missing-glyph horiz-adv-x="569" />
<glyph horiz-adv-x="0" />
<glyph unicode="&#xd;" horiz-adv-x="569" />
<glyph unicode=" "  horiz-adv-x="569" />
<glyph unicode="&#x09;" horiz-adv-x="569" />
<glyph unicode="&#xa0;" horiz-adv-x="569" />
<glyph unicode="!" horiz-adv-x="356" d="M51 100q0 53 36 89t89 36t89 -35.5t36 -89.5q0 -51 -36 -88t-89 -37t-89 37t-36 88zM68 1321q0 59 32.5 84t75.5 25t76 -25t33 -84q0 -18 -7.5 -119.5t-19.5 -245t-25.5 -306.5t-25.5 -304h-62q-4 37 -10 117t-15 181t-18.5 211t-16.5 205t-12 166.5t-5 94.5z" />
<glyph unicode="&#x22;" horiz-adv-x="591" d="M80 827v603h127v-603h-127zM381 827v603h127v-603h-127z" />
<glyph unicode="#" horiz-adv-x="905" d="M20 287q18 37 32 93t14 93h149l82 399h-156q18 37 31.5 93.5t13.5 93.5h150q16 82 27.5 135t17.5 85t8 48t2 29q18 -4 30.5 -7t22.5 -3q14 0 62 12q-6 -16 -12.5 -32.5t-14.5 -46.5t-20.5 -81t-30.5 -139h211q16 82 26.5 135t16.5 85l9 48t3 29q18 -4 30.5 -7t23.5 -3 q14 0 61 12q-6 -16 -12 -32.5t-14.5 -46.5t-20.5 -81t-31 -139h154q-8 -18 -16.5 -43t-14.5 -51.5t-10 -50t-4 -42.5h-150q-20 -104 -39.5 -199t-42.5 -200h156q-8 -18 -16.5 -42.5t-14.5 -51.5t-10 -50.5t-4 -41.5h-148q-16 -78 -26 -129.5t-17.5 -84t-10.5 -50t-5 -29.5 q-16 0 -28.5 3t-22.5 3t-25.5 -3t-34.5 -3q6 16 12.5 32.5t14.5 46t19.5 80t29.5 134.5h-209q-16 -78 -26.5 -129.5t-17.5 -84t-10 -50t-5 -29.5q-16 0 -28.5 3t-22.5 3t-25.5 -3t-34.5 -3q6 16 12.5 32.5t14.5 46t19.5 80t29.5 134.5h-154zM297 473h221l82 399h-213 q-20 -104 -40.5 -199t-49.5 -200z" />
<glyph unicode="$" horiz-adv-x="905" d="M25 86q20 47 27 86t14 98h36q35 -63 74 -103t79 -62.5t80 -32t79 -9.5v553q-90 35 -157 71t-110 81t-64.5 100.5t-21.5 130.5q0 74 25 137.5t71 111.5t111.5 80t145.5 42q0 37 -3 78t-20 88q45 -16 70 -16q23 0 65 16q-10 -43 -13 -83t-3 -77q63 0 112.5 -10t85 -24.5 t62.5 -32t49 -31.5q-16 -35 -29.5 -75t-27.5 -101h-41q-10 27 -25.5 56.5t-40 56t-60.5 45t-85 22.5v-498q88 -35 155.5 -68.5t113.5 -76.5t70.5 -97.5t24.5 -127.5q0 -76 -24.5 -146.5t-70.5 -128t-113.5 -98.5t-155.5 -59q0 -57 2 -114.5t12 -119.5q-43 16 -63 16 q-23 0 -68 -16q12 57 16.5 112.5t4.5 106.5q-4 0 -8.5 -1t-8.5 -1q-109 0 -197.5 25.5t-174.5 95.5zM238 1055q0 -86 45 -143.5t131 -92.5v455q-76 -18 -126 -76.5t-50 -142.5zM510 76q86 29 136 101.5t50 164.5q0 31 -5 59.5t-23.5 58t-56.5 59.5t-101 63v-506z" />
<glyph unicode="%" horiz-adv-x="1742" d="M49 1032q0 74 23.5 136.5t67.5 108.5t105.5 72.5t137.5 26.5t138.5 -26.5t106.5 -72.5t67.5 -108.5t23.5 -136.5t-23.5 -137.5t-67.5 -109.5t-106.5 -72.5t-138.5 -26.5t-137.5 26.5t-105.5 72.5t-67.5 109.5t-23.5 137.5zM219 1032q0 -53 9.5 -103t30 -89t51 -61.5 t73.5 -22.5t74.5 22.5t52 61.5t30 89t9.5 103t-9.5 103.5t-30 88.5t-52 61.5t-74.5 23.5t-73.5 -23.5t-51 -61.5t-30 -88.5t-9.5 -103.5zM424 -86l770 1511q31 -12 51 -12t68 19l-770 -1512q-27 10 -49 10q-10 0 -29 -3t-41 -13zM1024 313q0 74 23.5 136.5t67.5 108.5 t106.5 72.5t138.5 26.5t137.5 -26.5t105.5 -72.5t67.5 -108.5t23.5 -136.5t-23.5 -137t-67.5 -109.5t-105.5 -73t-137.5 -26.5t-138.5 26.5t-106.5 73t-67.5 109.5t-23.5 137zM1194 313q0 -53 9 -103t29.5 -89t52.5 -61.5t75 -22.5t73.5 22.5t51 61.5t30 89t9.5 103 t-9.5 103.5t-30 88.5t-51 61.5t-73.5 23.5t-75 -23.5t-52.5 -61.5t-29.5 -88.5t-9 -103.5z" />
<glyph unicode="&#x26;" horiz-adv-x="1312" d="M49 315q0 68 27.5 132.5t76 122t115 104.5t144.5 82q-59 82 -94 157.5t-35 151.5q0 66 23.5 122t66.5 98t101 66.5t128 24.5q123 0 201 -59.5t78 -175.5q0 -57 -26 -109.5t-64.5 -97.5t-87 -83t-93.5 -65q10 -12 18.5 -25t18.5 -26q78 -100 152.5 -194.5t150.5 -180.5 q70 98 128.5 196.5t111.5 217.5q18 -41 42.5 -65.5t49.5 -40.5q-66 -98 -128 -188.5t-146 -188.5q63 -72 133.5 -151t134.5 -150q-39 0 -55 4q-23 4 -48.5 5t-48.5 1q-20 0 -44.5 -2t-47.5 -6q-6 0 -14 -1t-14 -1q-18 29 -50 72.5t-73 93.5q-90 -90 -189.5 -141.5 t-245.5 -51.5q-80 0 -152.5 22.5t-126.5 66.5t-86 110.5t-32 152.5zM236 352q0 -53 21.5 -102t59 -87t90 -61.5t115.5 -23.5q98 0 168 36t137 101q-98 119 -188 234.5t-182 238.5q-106 -66 -163.5 -140.5t-57.5 -195.5zM444 1120q0 -27 9.5 -61.5t26 -71.5t38 -75t45.5 -70 q98 63 145.5 146t47.5 155q0 68 -40 112.5t-112 44.5q-74 0 -117 -52t-43 -128z" />
<glyph unicode="'" horiz-adv-x="294" d="M78 827v603h127v-603h-127z" />
<glyph unicode="(" horiz-adv-x="440" d="M16 578q0 111 21.5 225.5t64.5 225t106.5 212.5t145.5 193l56 -50q-78 -98 -126 -193t-76 -193.5t-37 -202t-9 -217.5q0 -115 9 -218.5t37 -202t76 -193.5t126 -193l-56 -52q-166 180 -252 401.5t-86 457.5z" />
<glyph unicode=")" horiz-adv-x="440" d="M29 -229q78 98 126 193t75.5 193.5t36.5 202t9 218.5t-9 218t-36.5 201.5t-76 193.5t-125.5 193l55 52q166 -180 252 -401.5t86 -456.5q0 -111 -21.5 -225.5t-64.5 -225.5t-106.5 -214t-145.5 -192z" />
<glyph unicode="*" horiz-adv-x="749" d="M12 1155q23 20 45.5 54t22.5 75l252 -186l-29 309q45 -14 72 -14t69 14l-30 -309q59 45 124.5 93t123.5 91q6 -39 25.5 -71.5t47.5 -53.5l-280 -127q70 -33 140.5 -67.5t135.5 -63.5q-23 -18 -44 -51t-25 -70l-250 174q8 -72 15 -150.5t15 -150.5q-18 4 -35.5 8.5 t-31.5 4.5q-18 0 -35.5 -3.5t-36.5 -7.5l29 299q-57 -41 -122 -88t-120 -88q-4 39 -23.5 72t-48.5 51l277 129q-70 31 -143.5 64.5t-139.5 62.5z" />
<glyph unicode="+" horiz-adv-x="1048" d="M4 459v125h457v458h127v-458h456v-125h-456v-459h-127v459h-457z" />
<glyph unicode="," horiz-adv-x="360" d="M12 -336l160 500q8 29 30.5 56.5t67.5 27.5q29 0 57.5 -18.5t28.5 -59.5q0 -23 -11 -46.5t-23 -45.5h2q-61 -106 -128 -217t-128 -217zM324 76v2v-2z" />
<glyph unicode="-" d="M82 403v146h522v-146h-522z" />
<glyph unicode="." horiz-adv-x="360" d="M53 100q0 53 36 89t89 36t89 -35.5t36 -89.5q0 -51 -36 -88t-89 -37t-89 37t-36 88z" />
<glyph unicode="/" horiz-adv-x="684" d="M-8 -55l569 1499q20 -6 34.5 -10t25.5 -4q10 0 28.5 5t42.5 13l-569 -1499q-20 6 -34.5 10t-25.5 4q-10 0 -28.5 -5t-42.5 -13z" />
<glyph unicode="0" horiz-adv-x="1093" d="M63 672q0 145 26 273t82 224.5t148.5 151.5t227.5 55q147 0 241.5 -55t148.5 -151.5t73.5 -224.5t19.5 -273q0 -139 -28.5 -267.5t-88 -225.5t-150.5 -154.5t-216 -57.5q-147 0 -241.5 56.5t-149 151.5t-74 223.5t-19.5 273.5zM250 672q0 -131 15.5 -245t50 -197t91 -130 t140.5 -47q82 0 139 47t92 130t50.5 197t15.5 245t-15.5 244.5t-50.5 197.5t-92 131t-139 47q-84 0 -140.5 -44t-91 -125t-50 -195.5t-15.5 -255.5z" />
<glyph unicode="1" horiz-adv-x="569" d="M-6 1163v29q131 53 253 108.5t216 102.5l24 -17q-8 -131 -12 -264t-4 -266v-338q0 -129 4 -265t12 -265q-55 12 -104 12t-104 -12q10 131 13 266t3 264v703q-59 -31 -118.5 -64t-117.5 -65q-23 41 -65 71z" />
<glyph unicode="2" horiz-adv-x="983" d="M45 -10v47q141 139 244.5 245.5t177.5 191.5t119 151.5t71.5 127t35.5 120t9 126.5q0 74 -17 127.5t-48 88t-70 51t-82 16.5q-61 0 -106 -22.5t-75 -56.5t-45 -71.5t-21 -68.5l-29 -4l-78 108q68 109 161 159t222 50q82 0 153.5 -21.5t125 -65.5t84 -113.5t30.5 -165.5 q0 -72 -15 -132.5t-48 -118t-81 -115.5t-112 -124l-61 -61q-37 -37 -78 -80t-81 -84t-76 -81t-60 -71h172q145 0 265 5.5t204 11.5q-6 -27 -10 -48.5t-4 -37.5q0 -14 4 -36t10 -48q-109 4 -223.5 7t-223.5 3q-111 0 -222 -3t-222 -7z" />
<glyph unicode="3" horiz-adv-x="940" d="M43 43q10 20 18.5 60t10.5 73l26 14q18 -23 45 -47t61 -43.5t74.5 -33t88.5 -13.5q145 0 229 91.5t84 234.5q0 80 -20.5 136t-56.5 90t-86 49.5t-111 15.5q-20 0 -49 -5.5t-54 -11.5q2 16 4 31.5t2 26.5q0 10 -2 24.5t-4 30.5q57 -10 103 -10q68 0 110.5 28.5t67 72.5 t33 96.5t8.5 101.5q0 61 -17.5 106t-47.5 75t-66.5 43t-75.5 13q-78 0 -136.5 -49t-80.5 -113l-31 -4l-51 121q45 45 118.5 87t188.5 42q82 0 154.5 -18.5t126 -56t85 -96t31.5 -138.5q0 -72 -23.5 -128t-61.5 -98t-84 -71t-91 -43q51 -6 108.5 -25.5t104.5 -56.5t79 -95 t32 -144q0 -94 -38 -174t-106.5 -138.5t-165 -92.5t-215.5 -34q-111 0 -186.5 23.5t-132.5 52.5z" />
<glyph unicode="4" horiz-adv-x="1040" d="M2 360v52q90 125 187.5 261t187.5 265t167 240.5t126 187.5q45 -10 71 -10q16 0 35 4t41 8q-4 -88 -7 -193.5t-5 -219t-2 -230.5v-223q57 0 110.5 4t92.5 12q-6 -23 -10.5 -42t-4.5 -36q0 -16 4 -35.5t11 -44.5q-39 8 -93.5 11.5t-109.5 3.5v-74q0 -68 3 -141.5t7 -126.5 q0 -10 1 -23.5t1 -21.5q-55 12 -98 12q-45 0 -101 -12q4 59 10.5 148t6.5 165v74q-51 0 -140.5 -2t-184.5 -4t-180 -4.5t-126 -4.5zM190 502h443l-4 637q-47 -66 -108.5 -153t-124 -178t-118 -173t-88.5 -133z" />
<glyph unicode="5" horiz-adv-x="944" d="M49 53v25q10 25 18.5 60.5t12.5 64.5h29q18 -37 48.5 -65.5t69.5 -47t81 -28t83 -9.5q57 0 110.5 21.5t94.5 66.5t66.5 114t25.5 161q0 82 -22.5 140t-61.5 95t-88 54.5t-100 17.5q-82 0 -135.5 -28.5t-71.5 -41.5l-35 23q16 86 19.5 174t3.5 172q0 86 -3.5 177 t-13.5 161l27 16q14 -4 44 -7t71 -5q45 -2 106 -3t139 -1q94 0 174 1t115 1l16 -12q-10 -29 -13 -59.5t-3 -59.5v-19.5t4 -25.5q-47 8 -120.5 14t-153.5 9t-155 4t-124 1l-26 -432q39 18 88 31.5t129 13.5q90 0 163.5 -31.5t126 -85t80 -124t27.5 -148.5q0 -98 -38 -183 t-105.5 -149.5t-161.5 -101.5t-207 -37q-92 0 -179 19.5t-155 66.5z" />
<glyph unicode="6" horiz-adv-x="1005" d="M57 559v6q0 168 39 315.5t116 258t187.5 174t255.5 63.5h13q33 0 51 -2t41 -6l35 -76l-19 -16q-25 6 -50.5 11t-57.5 5q-111 0 -191 -65.5t-130 -161.5t-74.5 -208t-24.5 -204q20 31 50 61.5t67.5 55.5t87 39t110.5 14q55 0 125 -16t133.5 -59t106.5 -119t43 -195 q0 -104 -33 -190t-92.5 -147.5t-144.5 -95.5t-189 -34q-90 0 -172 32t-144.5 102.5t-100.5 183t-38 274.5zM256 391q0 -74 19.5 -136t54.5 -107.5t82 -70t102 -24.5q123 0 190.5 94t67.5 244t-59.5 244t-186.5 94q-57 0 -106 -24.5t-86 -69.5t-57.5 -107.5t-20.5 -136.5z " />
<glyph unicode="7" horiz-adv-x="950" d="M43 -16q94 152 198.5 323.5t203 335.5t182.5 306.5t137 236.5q-94 0 -271.5 -2t-429.5 -19q4 27 7.5 54.5t3.5 46.5q0 18 -3 44.5t-8 53.5q82 -4 156 -8t129 -6q33 0 83 -1t103.5 -2t105.5 -1h89q33 0 60.5 1t54.5 1h104v-45q-90 -154 -184 -318t-188.5 -331 t-184.5 -335.5t-172 -330.5q-43 12 -82 12q-33 0 -94 -16z" />
<glyph unicode="8" horiz-adv-x="1034" d="M55 371q0 125 69 229.5t226 157.5l-2 2q-39 10 -78 33.5t-70.5 60.5t-52 85t-20.5 108q0 66 27.5 125t79 105t123 72.5t159.5 26.5q102 0 177 -25.5t123 -67.5t71.5 -97.5t23.5 -114.5q0 -49 -14 -96t-43 -87t-70 -72t-96 -50q37 -8 87 -29.5t95 -62.5t76 -103.5 t31 -152.5q0 -102 -36 -185t-99.5 -142.5t-147.5 -91.5t-178 -32q-98 0 -182 26.5t-145.5 79t-97.5 127.5t-36 171zM254 381q0 -143 69.5 -235.5t192.5 -92.5t192.5 92.5t69.5 235.5q0 145 -69.5 237.5t-192.5 92.5t-192.5 -92.5t-69.5 -237.5zM311 1044q0 -49 12.5 -95 t38 -79.5t64.5 -54t92 -20.5q55 0 94 20.5t64.5 54t38 79.5t12.5 95t-12.5 94.5t-38 79t-64.5 54t-94 20.5q-53 0 -92 -20.5t-64.5 -54t-38 -78.5t-12.5 -95z" />
<glyph unicode="9" horiz-adv-x="1019" d="M43 934q0 94 33 176t92 140.5t144 92t190 33.5q92 0 176 -31.5t147.5 -101t101.5 -182.5t38 -275q0 -170 -41 -319.5t-119 -260t-190.5 -175t-256.5 -64.5q-53 0 -98 10.5t-70 20.5q-6 29 -18 65.5t-27 59.5l21 16q45 -41 96 -63.5t107 -22.5q102 0 175.5 55.5t122 145.5 t71 203.5t24.5 230.5q-49 -74 -127 -120t-191 -46q-186 0 -293.5 107.5t-107.5 304.5zM242 934q0 -166 63.5 -241t173.5 -75q68 0 120 31t87 83t53.5 117.5t18.5 137.5q0 135 -71 220t-187 85q-115 0 -186.5 -96t-71.5 -262z" />
<glyph unicode=":" horiz-adv-x="378" d="M61 100q0 53 36 89t89 36t89 -35.5t36 -89.5q0 -51 -35.5 -88t-89.5 -37q-53 0 -89 37t-36 88zM61 840q0 53 36 89t89 36t89 -36t36 -89q0 -51 -35.5 -88t-89.5 -37q-53 0 -89 37t-36 88z" />
<glyph unicode=";" horiz-adv-x="393" d="M20 -336l160 500q8 29 30.5 56.5t68.5 27.5q29 0 57.5 -18.5t28.5 -59.5q0 -23 -11.5 -46.5t-23.5 -45.5h2q-61 -106 -128 -217t-128 -217zM129 840q0 53 37 89t90 36q51 0 88 -36t37 -89q0 -51 -37 -88t-88 -37q-53 0 -90 37t-37 88zM332 76v2v-2z" />
<glyph unicode="&#x3c;" horiz-adv-x="1124" d="M2 463v121l1040 485v-131l-909 -418q227 -104 454.5 -208.5t454.5 -209.5v-129z" />
<glyph unicode="=" horiz-adv-x="1144" d="M86 262v125h1040v-125h-1040zM86 653v127h1040v-127h-1040z" />
<glyph unicode="&#x3e;" horiz-adv-x="1122" d="M80 -27v129l909 418q-227 104 -454.5 209t-454.5 209v131l1040 -489v-121z" />
<glyph unicode="?" horiz-adv-x="585" d="M35 1358q41 25 94 48.5t123 23.5q76 0 133 -23t96 -60.5t59.5 -88t20.5 -105.5q0 -61 -17.5 -111.5t-46 -95.5t-64.5 -83t-73 -75q-61 -61 -109 -121.5t-48 -129.5q0 -35 23.5 -72t70.5 -37q23 0 41 7t27 11l28 -16q-10 -12 -18 -31.5t-10 -36.5q-35 -10 -82 -10 q-27 0 -65 12.5t-73.5 40t-61.5 71.5t-26 110q0 55 16.5 101t43 87t59.5 77t68 71q31 31 59.5 60.5t51 60t35.5 64.5t13 73q0 72 -51 113.5t-112 41.5q-53 0 -103.5 -30.5t-87.5 -77.5zM125 100q0 53 37 89t88 36q53 0 89 -35.5t36 -89.5q0 -51 -36 -88t-89 -37 q-51 0 -88 37t-37 88z" />
<glyph unicode="@" horiz-adv-x="1402" d="M59 692q0 123 49.5 239t141.5 206t223 145t293 55q168 0 279.5 -43t178 -112.5t94.5 -157.5t28 -178q0 -111 -37 -203t-95.5 -156.5t-129 -100.5t-138.5 -36q-80 0 -108.5 33t-34.5 92q-35 -49 -90.5 -87t-122.5 -38q-111 0 -170.5 69.5t-59.5 211.5q0 102 30 187 t80 146.5t117.5 95.5t145.5 34q53 0 97 -21.5t65 -68.5l14 71h125q-41 -193 -63.5 -303t-33.5 -169.5t-14 -81t-3 -34.5q0 -61 57 -61q39 0 83 28.5t82 80t62.5 121t24.5 149.5q0 98 -22.5 180t-77 141.5t-145.5 92t-226 32.5q-121 0 -222.5 -48t-175 -133t-114.5 -198.5 t-41 -244.5q0 -119 38 -208t103.5 -148.5t156.5 -89t197 -29.5q72 0 138.5 16t127 42t112.5 57.5t93 62.5l-8 -92q-27 -25 -74 -55.5t-112.5 -58.5t-147 -47.5t-178.5 -19.5q-100 0 -204.5 38t-190.5 117t-141.5 197.5t-55.5 282.5zM506 623q0 -90 23.5 -134.5t91.5 -44.5 q57 0 99 47.5t69.5 114t42 139t14.5 123.5q0 59 -21.5 100.5t-91.5 41.5q-55 0 -97 -38t-71.5 -95.5t-44 -126t-14.5 -127.5z" />
<glyph unicode="A" horiz-adv-x="1355" d="M20 -14q162 356 325 719.5t317 724.5h55q35 -84 74.5 -179.5t80.5 -193.5q63 -154 132 -318t132.5 -311t115 -264t79.5 -178q-37 6 -68.5 10t-54.5 4q-47 0 -114 -12q-27 90 -70 202.5t-90 225.5q-12 33 -24.5 59.5t-22.5 54.5q-66 2 -129.5 3.5t-128.5 1.5 q-61 0 -118.5 -1.5t-119.5 -3.5q-61 -154 -114.5 -298t-81.5 -244q-43 12 -82 12q-20 0 -43 -4t-50 -10zM438 645q23 0 46.5 -1t45.5 -1q29 -2 55.5 -2h53.5q57 0 105.5 1t105.5 3l-209 473q-53 -125 -101 -237.5t-102 -235.5z" />
<glyph unicode="B" horiz-adv-x="1064" d="M82 -10q6 133 11 269t5 265v348q0 131 -5 266.5t-11 264.5q53 -4 109.5 -7t115.5 -3q25 0 51.5 1t55.5 3t53.5 4t52.5 2q88 0 168 -13.5t139.5 -48t94 -93t34.5 -146.5q0 -143 -73.5 -227t-214.5 -123q160 -18 249 -99.5t89 -246.5q0 -115 -48.5 -195t-123 -129 t-168 -70.5t-183.5 -21.5q-23 0 -48 1t-50 3t-48.5 4t-47.5 2q-55 0 -106.5 -3t-100.5 -7zM285 494q0 -70 2 -137.5t6 -137.5q2 -33 2 -62.5t2 -64.5q37 -4 87 -6t99 -2q63 0 121 21.5t101 63.5t68.5 103.5t25.5 141.5q0 84 -31 137t-88 84t-137 42t-178 11h-80v-194z M285 784h98q70 0 137.5 13.5t119.5 45t85 86t33 136.5q0 78 -29 126t-74 73.5t-102 35t-113 9.5q-45 0 -80.5 -2t-62.5 -7q-2 -29 -2 -59.5t-2 -58.5q-4 -66 -6 -129.5t-2 -126.5v-142z" />
<glyph unicode="C" horiz-adv-x="1341" d="M55 696q0 174 56.5 310.5t158 230.5t242.5 143.5t311 49.5q133 0 250 -29t203 -68q-16 -31 -27.5 -78t-17.5 -79q0 -4 -1 -9.5t-1 -7.5l-27 -4q-20 25 -56 55.5t-84 58t-108.5 47t-130.5 19.5q-117 0 -217 -37.5t-174 -115.5t-116 -199t-42 -287t42 -285.5t116 -198.5 t174.5 -116t216.5 -37q72 0 134.5 18.5t114.5 44t93 55.5t70 52l18 -16l-20 -131q-20 -16 -61.5 -36.5t-97.5 -39t-125.5 -31t-145.5 -12.5q-162 0 -299 49t-236.5 143.5t-156 230.5t-56.5 310z" />
<glyph unicode="D" horiz-adv-x="1445" d="M88 -10q4 131 9 267t5 265v348q0 131 -5 266.5t-9 266.5q76 -4 157 -7t156 -3q39 0 77 1t75 3l78 4t76 2q180 0 308 -47t210 -134t119.5 -213t37.5 -284q0 -205 -70.5 -345t-180 -227t-240.5 -125t-252 -38q-35 0 -68.5 1t-66.5 3q-35 2 -69 4t-66 2q-70 0 -141.5 -3 t-139.5 -7zM289 522q0 -211 12 -420q43 -10 111.5 -14t142.5 -4q111 0 219.5 26.5t195.5 97.5t141 195.5t54 321.5q0 172 -42 283.5t-117.5 176t-178 89t-225.5 24.5q-86 0 -164 -5t-137 -13q-12 -190 -12 -410v-348z" />
<glyph unicode="E" horiz-adv-x="851" d="M82 -10q6 133 11 269t5 265v348q0 131 -5 266.5t-11 264.5q92 -4 185 -7t186 -3q92 0 186 3t184 7q-4 -20 -5 -36.5t-1 -33.5q0 -16 1 -33.5t5 -37.5q-29 2 -60.5 4t-55.5 4q-43 4 -86 7t-91.5 6t-106.5 4t-132 1q0 -25 -1 -44t-3 -42q-2 -35 -3 -77t-1 -83q0 -47 1 -92 t1 -86v-78q166 0 281.5 5.5t211.5 15.5q-4 -18 -6 -37.5t-2 -36.5q0 -39 8 -74q-55 6 -124.5 10.5t-139.5 6.5t-130 3t-99 1q0 -16 -1 -37.5t-1 -53.5v-78v-114q0 -117 1 -185.5t3 -107.5q68 0 142.5 1t148 4.5t140 8.5t118.5 15q-10 -51 -11 -74q0 -14 2 -32.5t7 -36.5 q-90 4 -186.5 7t-188.5 3t-188.5 -3t-188.5 -7z" />
<glyph unicode="F" horiz-adv-x="845" d="M82 -12q6 131 11 268t5 266v348q0 131 -5 266.5t-11 266.5q92 -4 185 -7t186 -3q92 0 189 3t208 7q-8 -35 -8 -70q0 -39 8 -73q-57 6 -134 11t-157 9t-152.5 6t-121.5 2v-18q-2 -63 -3 -120.5t-1 -115.5q0 -37 1 -69.5t1 -63.5v-113q125 0 257 4.5t267 18.5 q-10 -41 -10 -72q0 -33 10 -73q-115 12 -255 15t-269 3v-162q0 -129 5 -266t11 -268q-66 12 -109 12q-47 0 -108 -12z" />
<glyph unicode="G" horiz-adv-x="1460" d="M59 696q0 174 56.5 310.5t161 230.5t252 143.5t329.5 49.5q102 0 183 -11.5t144.5 -30t113 -40t85.5 -41.5q-14 -29 -28.5 -77t-18.5 -93h-39q-31 37 -74.5 72.5t-100 63t-123 45t-142.5 17.5q-123 0 -229.5 -37.5t-185 -115.5t-123 -199t-44.5 -287q0 -145 40 -262 t116 -197.5t186.5 -123.5t249.5 -43q84 0 173 14t141 45q2 59 3 118.5t1 119.5q0 59 -2 115.5t-6 111.5q0 12 -1 31.5t-1 29.5q23 -6 51 -8t55 -2q23 0 45.5 1t50.5 11q-4 -45 -6 -151.5t-2 -272.5v-79q0 -23 1 -46.5t1 -44.5q-43 -16 -108.5 -33.5t-137 -31.5t-145.5 -24.5 t-133 -10.5q-182 0 -327.5 47t-248 139.5t-158 229.5t-55.5 317z" />
<glyph unicode="H" horiz-adv-x="1398" d="M84 -12q6 131 11 268t5 266v348q0 131 -5 267.5t-11 267.5q63 -12 111 -12q43 0 108 12q-6 -131 -11 -267.5t-5 -267.5v-61q33 0 65.5 -1t65.5 -1q70 -2 139.5 -3t140.5 -1q72 0 141.5 1t139.5 3q35 0 65.5 1t65.5 1v61q0 131 -5 267.5t-11 267.5q63 -12 108 -12t111 12 q-6 -131 -11.5 -267.5t-5.5 -267.5v-348q0 -129 5.5 -266t11.5 -268q-66 12 -111 12t-108 -12q6 131 11 268t5 266v172q-104 2 -205.5 3t-206.5 1q-106 0 -205.5 -1t-205.5 -3v-172q0 -129 5 -266t11 -268q-66 12 -108 12q-47 0 -111 -12z" />
<glyph unicode="I" horiz-adv-x="370" d="M74 -12q6 131 11 268t5 266v348q0 131 -5 267.5t-11 267.5q61 -12 108 -12t109 12q-6 -131 -11.5 -267.5t-5.5 -267.5v-348q0 -129 5.5 -266t11.5 -268q-61 12 -109 12q-47 0 -108 -12z" />
<glyph unicode="J" horiz-adv-x="585" d="M55 -481q88 0 140.5 39t79 108.5t33.5 167.5t7 215l11 821q0 131 -5.5 267.5t-11.5 267.5q63 -12 109 -12q47 0 108 12q-6 -131 -11 -267.5t-5 -267.5v-243.5t-2 -298.5v-115t-1 -130.5t-1 -118.5v-79q0 -92 -31 -173t-87 -140t-136 -94t-176 -35z" />
<glyph unicode="K" horiz-adv-x="1189" d="M84 0q6 131 11 262t5 260v348q0 131 -5 267.5t-11 267.5q61 -12 109 -12q43 0 108 12q-6 -131 -11 -267.5t-5 -267.5v-110q0 -6 2 -6q4 0 22 16q68 59 144.5 135t155.5 160t158 171t153 169q45 -12 86 -12q53 0 131 16q-74 -66 -167 -152t-185.5 -175t-176.5 -173 t-139 -145q80 -92 163 -186.5t169 -192.5q82 -94 173 -198.5t177 -200.5q-41 6 -80 10t-67 4q-29 0 -57.5 -3t-57.5 -7q-72 86 -158 192.5t-170 205.5t-153.5 180t-106.5 118q-14 14 -16 14v-178q0 -129 5 -266t11 -268q-66 12 -108 12q-23 0 -47.5 -3t-49.5 -7z" />
<glyph unicode="L" horiz-adv-x="841" d="M82 -10q6 131 11 267t5 265v348q0 131 -5 267.5t-11 267.5q61 -12 108 -12q43 0 109 12q-6 -131 -11 -267.5t-5 -267.5q0 -199 1 -352t3 -282q0 -37 1 -67t1 -65h136.5t134 3.5t139 9.5t151.5 16q-6 -23 -10 -40t-4 -32q0 -14 4 -31.5t10 -39.5q-92 4 -192.5 7t-192.5 3 q-94 0 -191.5 -3t-191.5 -7z" />
<glyph unicode="M" horiz-adv-x="1767" d="M70 -14q27 168 54.5 354t54 374.5t49 372t38.5 343.5h53q137 -285 276.5 -553.5t295.5 -550.5q18 33 44 82t57.5 108t67.5 126t73 134q43 80 90 165t93 170t89 166t82 153h39q16 -137 30.5 -269.5t28.5 -259.5q27 -227 53.5 -459.5t55.5 -453.5q-55 12 -107 12 q-47 0 -104 -12q-10 135 -20.5 264t-23 255t-25.5 252t-32 255q-10 -23 -21 -43.5t-24 -40.5q-117 -213 -235.5 -438.5t-233.5 -491.5h-34q-78 166 -163 339t-175 347q-43 84 -83 161t-85 163q-14 -125 -30.5 -267.5t-31 -280.5t-24 -262t-9.5 -212q-43 12 -81 12 q-16 0 -37 -4t-45 -10z" />
<glyph unicode="N" horiz-adv-x="1386" d="M76 -14q4 25 9 82t10 134t9.5 167t8.5 181t6 176t2 153q0 193 -1 338t-5 213h47q23 -23 45 -49.5t45 -49.5q119 -129 246 -266t247.5 -267t230 -245t193.5 -199v269.5t-2 275.5t-5 266t-9 242q25 -6 44.5 -10t33.5 -4t33.5 4t44.5 10q-4 -31 -7.5 -84t-7.5 -116.5 t-8 -133t-6 -136.5t-4 -124t-2 -96v-121t1 -145.5t1 -153.5t1 -144.5t2 -116.5t1 -73h-43q-211 250 -453.5 512t-484.5 518l-69 72q-2 -59 -3.5 -149.5t-1.5 -235.5q0 -43 1 -105.5t2 -132t2.5 -141.5t4.5 -134.5t5 -110.5t6 -70q-25 6 -45.5 10t-36.5 4t-38 -4t-50 -10z " />
<glyph unicode="O" horiz-adv-x="1660" d="M63 696q0 174 56.5 310.5t158 230.5t241.5 143.5t310 49.5t311.5 -49.5t243 -143.5t157.5 -230.5t56 -310.5t-56 -310t-157.5 -230.5t-243 -143.5t-311.5 -49t-310 49t-241.5 143.5t-158 230.5t-56.5 310zM283 696q0 -166 42 -285.5t115.5 -198.5t173 -116t215.5 -37 q117 0 217.5 37t174 116t115.5 198.5t42 285.5t-42 287t-115.5 199t-174 115.5t-217.5 37.5t-216 -37.5t-172.5 -115.5t-115.5 -199t-42 -287z" />
<glyph unicode="P" horiz-adv-x="1001" d="M82 -12q6 131 11 268t5 266v348q0 131 -5 266.5t-11 266.5q49 -4 100 -7t107 -3q25 0 60.5 2t72.5 4q35 2 64.5 3t52.5 1q31 0 75.5 -2t96 -12.5t100.5 -32t90 -60.5t65.5 -98t24.5 -145q0 -137 -58.5 -222.5t-144.5 -132.5t-181 -63.5t-169 -16.5h-80t-73 5v-101 q0 -129 5 -266t11 -268q-66 12 -111 12t-108 -12zM285 727q29 -6 66.5 -10t66.5 -4q61 0 125.5 13t118 50t88 100.5t34.5 163.5q0 82 -22.5 135.5t-65.5 82t-103.5 40t-135.5 11.5h-172v-582z" />
<glyph unicode="Q" horiz-adv-x="1699" d="M29 696q0 174 56 310.5t156.5 230.5t241 143.5t310.5 49.5t311 -49.5t242.5 -143.5t158 -230.5t56.5 -310.5q0 -141 -37 -256.5t-105.5 -205t-165 -150.5t-213.5 -92q55 -43 136 -105.5t169.5 -129t172.5 -128t143 -104.5q-66 -4 -117 -33t-67 -57q-55 51 -137.5 120.5 t-170.5 143.5t-173 144.5t-148 121.5q-14 -2 -27.5 -2h-27.5q-170 0 -310.5 49t-241 143.5t-156.5 230.5t-56 310zM246 696q0 -166 42 -285.5t115.5 -198.5t174 -116t215.5 -37q117 0 217 37t175 116t116.5 198.5t41.5 285.5t-41.5 287t-116.5 199t-175.5 115.5t-216.5 37.5 q-115 0 -215.5 -37.5t-174 -115.5t-115.5 -199t-42 -287z" />
<glyph unicode="R" horiz-adv-x="1169" d="M84 -12q6 131 11 268t5 266v348q0 131 -5 266.5t-11 266.5q57 -4 119.5 -7t120.5 -3q29 0 57.5 1t56.5 3q29 2 57.5 4t57.5 2q88 0 167 -16.5t137 -54.5t92 -101.5t34 -155.5q0 -98 -41 -168.5t-101.5 -118t-131 -74t-129.5 -34.5q20 -27 48.5 -62.5t61.5 -78.5 q53 -68 117.5 -149t128 -158.5t118 -143t85.5 -102.5q-41 6 -80 10t-68 4q-51 0 -121 -12q-29 45 -89 130t-135 183t-153.5 194.5t-146.5 163.5h-61v-137q0 -129 5 -266t11 -268q-66 12 -108 12q-47 0 -109 -12zM285 764q27 -4 59.5 -6t65.5 -2q61 0 127.5 14t122 48 t91 91.5t35.5 145.5q0 76 -28.5 125t-72.5 77.5t-98.5 40t-103.5 11.5q-66 0 -109.5 -2t-76.5 -7q-4 -111 -8 -216t-4 -214v-106z" />
<glyph unicode="S" horiz-adv-x="960" d="M55 86q20 49 27.5 90t13.5 103h41q16 -35 44 -72t66 -67.5t88 -50t114 -19.5q66 0 116.5 22.5t86.5 60t55.5 89t19.5 110.5q0 61 -23.5 104.5t-63.5 76t-90 56t-106 46.5q-66 27 -128 56.5t-112 74.5t-81 110.5t-31 161.5q0 86 31 158t89 124t141 81t188 29 q98 0 170.5 -25t138.5 -76q-18 -37 -31.5 -79t-25.5 -105h-41q-10 27 -27.5 60.5t-45.5 62t-67 48t-92 19.5q-55 0 -101 -17.5t-80 -50t-52.5 -76.5t-18.5 -97q0 -66 24.5 -110t65.5 -77t94.5 -56.5t108.5 -45.5q63 -25 125 -53.5t111 -70.5t78.5 -102.5t29.5 -150.5 q0 -94 -34.5 -179t-99 -148.5t-158 -100.5t-212.5 -37q-127 0 -208.5 39t-137.5 84z" />
<glyph unicode="T" horiz-adv-x="1097" d="M14 1253q6 23 10.5 42.5t4.5 35.5q0 12 -4.5 29.5t-10.5 42.5q131 -4 267.5 -7t267.5 -3t267 3t267 7q-6 -25 -10 -42.5t-4 -31.5q0 -16 4 -34.5t10 -41.5q-45 6 -99 10.5t-112.5 7.5t-116 5t-108.5 2q-6 -207 -6 -408v-348q0 -129 5 -266t11 -268q-61 12 -108 12 t-109 -12q6 131 11.5 268t5.5 266v348q0 104 -1 204t-5 204q-104 0 -224.5 -6t-212.5 -19z" />
<glyph unicode="U" horiz-adv-x="1359" d="M78 1405q29 -6 60.5 -9t54.5 -3q20 0 45.5 4t54.5 10q-6 -49 -10 -124t-8.5 -167t-6.5 -198.5t-2 -217.5q0 -102 7.5 -211.5t48 -200.5t130 -150.5t255.5 -59.5q162 0 249.5 67.5t127.5 168t47.5 215t7.5 208.5v253t-2 191t-4.5 136t-8.5 90q29 -6 51.5 -10t43.5 -4 q29 0 73 16q-6 -72 -12 -172t-11 -215t-9.5 -235.5t-6.5 -231.5q-2 -135 -40.5 -244.5t-113.5 -186.5t-183.5 -119t-247.5 -42q-305 0 -446.5 144.5t-141.5 443.5q0 51 2 94t4 84q2 37 3 71t1 70q0 143 -3 261t-7 208q0 16 -1 35t-1 31z" />
<glyph unicode="V" horiz-adv-x="1359" d="M25 1407q35 -6 67.5 -10t54.5 -4q47 0 113 12q90 -268 207 -569t246 -611q37 82 77.5 183.5t84 210t86.5 220t80.5 216t68.5 194.5t53 156q20 -6 42 -9t40 -3q33 0 92 16q-158 -350 -308 -710.5t-284 -710.5q-41 12 -73 12q-33 0 -64 -10l-12 6q-47 125 -114.5 296 t-144.5 360.5t-158 385t-154 369.5z" />
<glyph unicode="W" horiz-adv-x="2105" d="M55 1407q37 -6 66 -10t51 -4q47 0 109 12q39 -154 74.5 -284t75.5 -263t87 -282.5t109 -342.5q12 41 28.5 88.5t38.5 110.5q27 80 57.5 171t62.5 185.5t61.5 186.5t55 174t44 147.5t29.5 108.5q39 -12 75 -12q33 0 74 12q14 -53 44 -147.5t65.5 -207t75.5 -235.5 t78 -235.5t70 -204.5t50 -146q18 57 49 154.5t67 214.5t73.5 242t71.5 236.5t57.5 198.5t33.5 130q43 -12 80 -12q18 0 40 4t48 10q-20 -47 -59 -155.5t-87 -248t-102.5 -296t-102.5 -298t-86 -255t-56 -166.5q-37 12 -76 12q-16 0 -35.5 -3t-38.5 -9q-90 283 -179 560 t-192 576q-18 -53 -45.5 -134t-60.5 -177t-70 -203.5t-72.5 -216t-71.5 -212t-65 -193.5q-43 12 -79 12q-16 0 -33 -3t-35 -7l-12 8q-16 55 -50 165.5t-77 250t-90.5 292t-91.5 291t-79.5 248t-54.5 162.5z" />
<glyph unicode="X" horiz-adv-x="1228" d="M47 -16q121 174 243 355t236 355q-104 174 -214.5 356.5t-221.5 356.5q37 -6 70 -10t59 -4q45 0 113 12q63 -131 139 -262t170 -285q92 137 170 266t162 281q43 -12 80 -12t98 16q-27 -35 -60.5 -83t-60.5 -85q-86 -123 -169 -237.5t-163 -239.5q113 -193 236 -391.5 t242 -386.5q-41 6 -74 10t-60 4q-33 0 -60.5 -3t-55.5 -7l-54 96q-66 125 -133 249t-153 259q-104 -154 -192.5 -304.5t-168.5 -301.5q-43 12 -80 12t-98 -16z" />
<glyph unicode="Y" horiz-adv-x="1218" d="M14 1407q39 -6 73 -10t60 -4q49 0 115 12q90 -174 183.5 -343t197.5 -349q45 72 94 155.5t97.5 174t95.5 182.5t88 180q45 -12 86 -12q31 0 100 16q-98 -154 -177 -276.5t-140.5 -221t-106.5 -176.5t-78 -139q0 -74 2.5 -162t4.5 -174t4 -158.5t6 -113.5q-61 12 -109 12 q-49 0 -110 -12q14 121 16 272.5t2 310.5q-23 37 -61.5 103.5t-88 149.5t-103.5 172t-102 170t-88 144.5t-61 96.5z" />
<glyph unicode="Z" horiz-adv-x="1247" d="M39 -10v49q80 109 168 232.5t176 248.5t171 246t152.5 223.5t121 179t77.5 117.5q-33 2 -63.5 2h-59.5q-72 0 -162 -2t-181 -7t-175 -11t-145 -13q4 23 8 41.5t4 34.5t-4 33.5t-8 40.5q98 -8 319 -10t537 -2q41 0 85 2t85 6q12 0 28.5 1t26.5 1v-49 q-39 -43 -110.5 -138.5t-158.5 -215t-181.5 -255t-178.5 -259.5t-150.5 -224t-96.5 -153q43 -4 79.5 -4.5t71.5 -0.5q78 0 180.5 3.5t206 8.5t195.5 12t147 15q-6 -27 -10 -46t-4 -31q0 -14 4 -33t10 -43q-147 4 -260 7t-229 3q-78 0 -179.5 -1t-199.5 -2t-179 -3t-118 -4z " />
<glyph unicode="[" horiz-adv-x="423" d="M76 -246q6 137 9 282.5t3 287.5v507q0 141 -3 287t-9 283q31 -4 59.5 -6t52.5 -2q47 0 112 2t108 4l20 -4q-6 -18 -6 -33q0 -20 6 -41q-43 2 -91 3t-95 1q-8 -123 -12.5 -246t-4.5 -248v-507q0 -127 4 -248t13 -246q47 0 96 1t90 3q-6 -25 -6 -41q0 -10 6 -37h-20 q-43 2 -107.5 4t-112.5 2q-27 0 -54.5 -2t-57.5 -6z" />
<glyph unicode="\" horiz-adv-x="686" d="M-8 1448q25 -8 43 -13t28 -5t24.5 4t35.5 10l569 -1499q-25 8 -43 13t-28 5t-24.5 -4t-35.5 -10z" />
<glyph unicode="]" horiz-adv-x="428" d="M-6 -240q4 12 6 21.5t2 11.5q0 8 -2 18.5t-4 22.5q43 -2 91 -3t95 -1q8 123 12.5 246t4.5 248v507q0 127 -4.5 248t-12.5 246q-47 0 -96 -1t-90 -3q2 10 4 21.5t2 19.5q0 2 -2 12t-4 25h20q43 -2 107.5 -4t112.5 -2q27 0 54 2t58 6q-6 -137 -9 -282.5t-3 -287.5v-507 q0 -141 3 -287t9 -283q-31 4 -58.5 6t-53.5 2q-47 0 -112 -2t-108 -4z" />
<glyph unicode="^" horiz-adv-x="1136" d="M25 410l487 936h115l483 -936h-125l-418 809q-104 -201 -209.5 -405t-207.5 -404h-125z" />
<glyph unicode="_" horiz-adv-x="1202" d="M86 -141h1028v-121h-1028v121z" />
<glyph unicode="`" horiz-adv-x="581" d="M51 1423q0 37 26.5 56.5t49.5 19.5q27 0 51.5 -14.5t46.5 -36.5l316 -320h-113l-301 193q-27 16 -51.5 38.5t-24.5 63.5z" />
<glyph unicode="a" horiz-adv-x="974" d="M55 227q0 129 79 198t214 89q106 16 165.5 28.5t88.5 27t35 31.5t6 44q0 49 -11 93t-37 78t-67 54.5t-98 20.5q-78 0 -146.5 -36t-103.5 -101h-37v118q96 70 175 96.5t161 26.5q152 0 245 -84t93 -225q0 -113 -4 -227.5t-4 -243.5q0 -23 1 -47.5t7 -45t20.5 -33.5 t39.5 -13q10 0 22 2t31 12v-67q-23 -10 -58.5 -20.5t-80.5 -10.5q-63 0 -99.5 32.5t-48.5 77.5q-70 -68 -138.5 -100.5t-170.5 -32.5q-53 0 -103.5 18.5t-89.5 52.5t-62.5 81t-23.5 106zM242 256q0 -92 51 -137t115 -45q74 0 133 41t94 94l8 287q-23 -6 -48.5 -11.5 t-53.5 -11.5q-51 -10 -104.5 -22.5t-96.5 -36t-70.5 -60.5t-27.5 -98z" />
<glyph unicode="b" horiz-adv-x="1038" d="M78 1540q55 -12 104 -12q39 0 111 12q-6 -43 -10 -128t-7.5 -188.5t-4.5 -213t-1 -203.5q135 188 334 188q106 0 185 -40t131.5 -106.5t78 -154.5t25.5 -184q0 -117 -36 -216t-99.5 -172t-148.5 -113t-185 -40q-96 0 -174 44t-121 100q-35 -27 -65.5 -54.5t-63.5 -58.5 h-51q4 47 7 116.5t5 149.5t3 162t1 154v364q0 68 -1 149t-3 160.5t-5 153.5t-9 131zM260 451q0 -395 285 -396q59 0 110.5 33t89 93.5t59 145.5t21.5 189q0 92 -22.5 162t-59 118t-84 71.5t-96.5 23.5q-61 0 -116.5 -22.5t-97.5 -75t-65.5 -136.5t-23.5 -206z" />
<glyph unicode="c" horiz-adv-x="991" d="M66 483q0 133 45 229.5t118.5 160t168 93t192.5 29.5q113 0 205 -29.5t133 -66.5q-16 -35 -28.5 -70.5t-20.5 -74.5h-27q-14 25 -39 53.5t-57.5 51t-73.5 37.5t-86 15q-88 0 -151.5 -32.5t-103.5 -90t-58.5 -135.5t-18.5 -168q0 -205 87 -308t251 -103q39 0 81 11 t82 31.5t76 48.5t64 58l23 -16q-4 -31 -8.5 -59.5t-6.5 -51.5q-63 -49 -156 -88t-190 -39q-90 0 -179 29t-160.5 90.5t-116.5 158.5t-45 236z" />
<glyph unicode="d" horiz-adv-x="1036" d="M14 477q0 131 40 228.5t102.5 162t142.5 96t160 31.5q209 0 305 -168v192.5t-1 196t-3 180.5t-4 146q8 -2 20 -4t19 -4q16 -4 33.5 -5t27.5 -1q27 0 57 6q8 2 22.5 3t25.5 3q-8 -68 -13.5 -193.5t-8.5 -274t-4 -303.5t-1 -284q0 -94 1 -171.5t3 -155.5q0 -39 1 -85t1 -87 q-8 2 -21.5 4t-19.5 4l-53 6q-20 0 -45 -6q-20 -4 -37 -8l2 170q-20 -31 -50 -65t-71 -60.5t-94 -44t-117 -17.5q-78 0 -152.5 30t-134 91.5t-96.5 157.5t-37 229zM213 465q0 -119 23.5 -195.5t62.5 -122t87 -63.5t95 -18q76 0 131.5 37.5t91 99t52 140.5t16.5 159 q0 188 -71.5 288.5t-213.5 100.5q-72 0 -123 -33t-84.5 -91t-50 -136t-16.5 -166z" />
<glyph unicode="e" horiz-adv-x="1015" d="M57 455q0 125 32 225t91.5 170t147.5 107.5t202 37.5q109 0 189 -33.5t133 -91t79.5 -134.5t26.5 -163q0 -20 -1 -44.5t-3 -43.5q-37 0 -78.5 1t-78.5 1q-72 2 -142.5 3.5t-142.5 1.5q-45 0 -88 -1.5t-88 -3.5q-23 0 -40 -1t-40 -1q0 -4 -1 -8t-1 -8q0 -8 1 -15.5 t1 -15.5q0 -78 22.5 -144.5t65.5 -115.5t105.5 -76.5t144.5 -27.5q39 0 81 11t82 31.5t75.5 48.5t64.5 58l21 -14l-13 -113q-63 -49 -156.5 -88t-189.5 -39q-111 0 -204 37t-158.5 102.5t-102.5 155t-37 191.5zM262 582q16 0 33.5 -1t34.5 -1q47 -2 93 -3.5t91 -1.5 q47 0 94 1.5t94 3.5q20 0 35 1t35 1q0 51 -10 109.5t-37 107.5t-71.5 80.5t-118.5 31.5q-72 0 -121 -31.5t-82 -79.5t-49.5 -106.5t-20.5 -111.5z" />
<glyph unicode="f" horiz-adv-x="618" d="M12 864q2 14 4 27.5t2 23.5q0 6 -2 19.5t-4 30.5q18 0 44 -1t42 -1h62q0 61 13 129.5t36.5 134t55.5 124t73 99.5q37 39 95.5 66.5t117.5 27.5q10 0 24.5 -2t26.5 -6q0 -20 -1 -38.5t-3 -35.5q-2 -23 -3 -51.5t-1 -48.5l-25 -10q-49 28 -104 28h-4q-41 0 -71 -16t-48 -42 t-27.5 -60.5t-9.5 -71.5q0 -35 6 -100.5t17 -126.5h94q27 0 59.5 1t57.5 1q-6 -35 -7 -50q0 -10 1.5 -23t5.5 -28q-16 0 -40 1t-40 1q-35 2 -64.5 3t-64.5 1q0 -219 1 -439t7 -443q-53 12 -98 12q-43 0 -99 -12q14 223 16.5 441t2.5 441q-23 0 -43.5 -1t-42.5 -3 q-12 0 -30.5 -1t-31.5 -1z" />
<glyph unicode="g" horiz-adv-x="1038" d="M59 -246q0 104 59.5 171t135.5 100q-104 45 -104 161q0 61 37.5 107.5t84.5 64.5q-86 45 -132 118t-46 179q0 86 32 150.5t85 106.5t126 62.5t152 20.5q27 0 51.5 -1t53.5 -3q14 -2 28.5 -2t30.5 -2q6 0 16.5 -1t16.5 -1q70 -6 109 -6q59 0 103 4t73 10q-6 -35 -6 -57 q0 -8 1 -22.5t5 -30.5q-16 2 -38 4t-38 4q-66 6 -135 6q55 -41 87 -107.5t32 -138.5q0 -156 -103.5 -244t-281.5 -88q-14 0 -28.5 1.5t-27.5 1.5q-14 2 -27.5 2h-27.5q-35 0 -61.5 -25t-26.5 -59q0 -47 22.5 -68.5t85.5 -24.5q29 -2 55.5 -3t55.5 -1q29 -2 55.5 -2h55.5 q94 -2 161.5 -23.5t110.5 -57t63.5 -84t20.5 -103.5q0 -72 -27.5 -146.5t-87 -135t-151.5 -99.5t-223 -39q-199 0 -316 80t-117 221zM209 -223q0 -66 22.5 -113t60.5 -76.5t90 -43t114 -13.5q59 0 115.5 15.5t101.5 46t71.5 78.5t26.5 114q0 113 -69.5 164t-225.5 51 q-145 0 -226 -50t-81 -173zM272 655q0 -119 52.5 -191.5t164.5 -72.5q55 0 95.5 22.5t67 60.5t38.5 88.5t12 103.5q0 121 -58 186.5t-152 65.5q-104 0 -162 -72t-58 -191z" />
<glyph unicode="h" horiz-adv-x="942" d="M80 -12q6 57 9 132t5 154.5t3 159.5t1 148v364q0 68 -1 149t-3 160.5t-5 153.5t-9 131q55 -12 102 -12q49 0 103 12q-4 -57 -7.5 -132t-5.5 -153.5t-3 -156.5t-1 -142l4 -120q55 76 132 117.5t180 41.5q57 0 116.5 -16t107.5 -56t79 -111t31 -177q0 -92 -5 -183.5 t-4 -191.5v-136.5t4 -135.5q-55 12 -94 12q-43 0 -94 -12l6 176q4 72 6 142.5t2 144.5v122q0 145 -56 221t-153 76q-137 0 -199.5 -84t-62.5 -237q0 -55 1 -129t3 -150.5t5.5 -150.5t7.5 -131q-53 12 -103 12q-47 0 -102 -12z" />
<glyph unicode="i" horiz-adv-x="321" d="M47 1317q0 47 33 80t80 33t79.5 -33t32.5 -80t-32.5 -80t-79.5 -33t-80 33t-33 80zM57 -12q10 98 14.5 199.5t4.5 189.5v211q0 88 -4 189.5t-15 199.5q51 -12 103 -12q49 0 102 12q-10 -98 -14 -199.5t-4 -189.5v-211q0 -88 4 -189.5t14 -199.5q-53 12 -102 12 q-51 0 -103 -12z" />
<glyph unicode="j" horiz-adv-x="503" d="M49 -520q12 -4 23.5 -6t17.5 -2q55 0 89 33.5t52.5 86t24.5 118t6 130.5l-6 666q0 119 -4 246t-14 225q55 -12 102 -12q49 0 104 12q-10 -98 -14 -199.5t-4 -189.5v-211q0 -59 1 -127t5 -139q4 -72 6 -138.5t2 -126.5q0 -86 -9 -158.5t-58 -144.5q-45 -66 -126 -109.5 t-186 -47.5zM227 1317q0 47 33 80t80 33t81 -33t34 -80t-34 -80t-81 -33t-80 33t-33 80z" />
<glyph unicode="k" horiz-adv-x="966" d="M51 -12q6 57 9 132t5.5 154.5t3.5 159.5t1 148v364q0 68 -1 149t-3.5 160.5t-5.5 153.5t-9 131q55 -12 103 -12q49 0 104 12q-6 -57 -9 -132t-5 -154.5t-3 -159.5t-1 -148v-366q0 -29 14 -29q10 0 23.5 9t31.5 24q4 2 8 6q18 14 62.5 55t100 96.5t113.5 118t107 117.5 q37 -12 80 -12q16 0 35 2t45 6q4 0 24.5 1t24.5 1q-135 -109 -254.5 -211t-224.5 -205q115 -139 246 -286.5t254 -286.5l-85 10t-57 4q-45 0 -106 -12q-45 59 -102.5 128.5t-113.5 137.5t-107.5 126t-86.5 95q-12 16 -22 17q-10 0 -10 -15v-121q0 -88 4 -178t14 -190 q-55 12 -104 12q-47 0 -103 -12z" />
<glyph unicode="l" horiz-adv-x="342" d="M66 -12q6 57 9 132t5 154.5t3 159.5t1 148v364q0 68 -1 149t-3 160.5t-5 153.5t-9 131q51 -12 102 -12q49 0 102 12q-6 -57 -9 -132t-5 -154.5t-3 -159.5t-1 -148v-364q0 -68 1 -149t3 -160.5t5 -153.5t9 -131q-53 12 -102 12q-51 0 -102 -12z" />
<glyph unicode="m" horiz-adv-x="1591" d="M84 -12q10 98 14 199.5t4 189.5v211q0 88 -4 189.5t-14 199.5q55 -12 102 -12q39 0 95 12q-6 -66 -7 -119v-22q105 159 291 159h2q49 0 95.5 -14t86 -38.5t70.5 -58.5t47 -75q51 88 135 137t187 49q68 0 126 -18.5t101 -57t67.5 -102t24.5 -151.5q0 -35 -2 -75t-4 -92.5 t-4 -121t-2 -158.5q0 -53 1 -110.5t5 -120.5q-53 12 -96 12q-51 0 -102 -12q6 63 14 222t8 429q0 49 -10 91t-34 73t-61.5 49t-95.5 18q-72 0 -120 -27.5t-74 -62.5q-14 -20 -23.5 -42.5t-14.5 -68.5t-7 -128t-2 -219q0 -88 3 -164t7 -170q-53 12 -98 12q-49 0 -101 -12 q10 115 15.5 237.5t5.5 233.5q0 94 -1 148.5t-4 86t-10.5 50t-19.5 40.5q-20 35 -66.5 60.5t-93.5 25.5q-127 0 -187.5 -84t-60.5 -237v-172q0 -88 4.5 -189.5t14.5 -199.5q-55 12 -105 12q-47 0 -102 -12z" />
<glyph unicode="n" horiz-adv-x="991" d="M76 -12q10 98 14 199.5t4 189.5v211q0 88 -4 189.5t-14 199.5q55 -12 102 -12q39 0 94 12q-6 -66 -6 -121v-22q55 78 132 119.5t182 41.5q57 0 116.5 -16t107.5 -56t78.5 -111t30.5 -177q0 -92 -4 -183.5t-4 -191.5v-136.5t4 -135.5q-55 12 -94 12q-43 0 -94 -12l6 176 q4 72 6 142.5t2 144.5v122q0 145 -56 221t-153 76q-137 0 -199.5 -84t-62.5 -237v-172q0 -88 3 -189.5t14 -199.5q-53 12 -103 12q-47 0 -102 -12z" />
<glyph unicode="o" horiz-adv-x="1124" d="M59 483q0 141 45.5 238.5t117 158t160.5 88t179 27.5q88 0 178 -27.5t162 -88t117 -157.5t45 -239q0 -141 -45 -239.5t-117 -158.5t-162 -88t-178 -28q-90 0 -179 28t-160.5 88t-117 158.5t-45.5 239.5zM258 483q0 -84 15.5 -160.5t50 -136t93 -95.5t144.5 -36t144.5 36 t93.5 95.5t50 136t15 160.5q0 82 -15 159t-50 137.5t-93.5 96t-144.5 35.5t-144.5 -35.5t-93 -96t-50 -137.5t-15.5 -159z" />
<glyph unicode="p" horiz-adv-x="1040" d="M78 -543q6 57 9 132t5 155t3 160t1 147v326q0 68 -1 147.5t-3 160.5t-5 157t-9 135q55 -12 104 -12q47 0 103 12q-8 -49 -12.5 -90t-4.5 -82q18 33 47 66.5t69 61.5t94 45t124 17q78 0 153.5 -29.5t135 -91t96.5 -157.5t37 -228q0 -131 -40 -229t-103.5 -162.5 t-143.5 -96.5t-159 -32q-104 0 -181.5 44t-130.5 128v-90q0 -68 1 -148.5t3 -160.5t5.5 -153.5t9.5 -131.5q-55 12 -103 13q-49 0 -104 -13zM266 475q0 -409 284 -409h1q70 0 122 32.5t86 90t50 135.5t16 168q0 117 -24.5 194.5t-62.5 122.5t-86 63.5t-95 18.5 q-80 0 -135 -34t-90 -90t-50.5 -132t-15.5 -160z" />
<glyph unicode="q" horiz-adv-x="1038" d="M14 477q0 135 40 232.5t102.5 161t139.5 94t153 30.5q127 0 203.5 -49t119.5 -131q-2 37 -7 78t-11 84q55 -12 102 -12q49 0 105 12q-6 -59 -9.5 -135t-5.5 -157t-3 -161t-1 -147v-326q0 -68 1 -148.5t3 -160.5t5 -153.5t10 -131.5q-55 12 -105 13q-47 0 -102 -13 q6 57 9 132t5 155t3 160t1 147l-4 113q-59 -98 -143 -146.5t-176 -48.5q-76 0 -154 25.5t-140.5 86t-101.5 158t-39 238.5zM213 461q0 -84 16.5 -157t48 -126t81 -82.5t114.5 -29.5q74 0 130 37.5t94 99t56.5 139.5t18.5 160q0 76 -15.5 145.5t-49 123.5t-87 87t-128.5 33 q-47 0 -97.5 -18.5t-90.5 -67.5t-65.5 -132t-25.5 -212z" />
<glyph unicode="r" horiz-adv-x="595" d="M76 -12q8 92 9 210.5t1 284.5v64q0 78 -1 188.5t-7 241.5q55 -12 94 -12q18 0 42 4t50 10q-4 -53 -6 -91t-2 -67v-22q57 98 123.5 147t134.5 49q20 0 35.5 -3t42.5 -13q-14 -33 -16.5 -84t-2.5 -92l-26 -15q-12 10 -40 21.5t-56 11.5q-47 0 -83 -20.5t-60.5 -57t-38 -86 t-13.5 -106.5v-217t1 -151.5t2 -108.5t5 -88q-27 6 -50.5 10t-41.5 4q-41 0 -96 -12z" />
<glyph unicode="s" horiz-adv-x="755" d="M55 45q14 29 28.5 78t14.5 82h39q10 -20 30.5 -45t49.5 -45.5t65.5 -34.5t77.5 -14q35 0 69 10t59.5 31.5t42 53.5t16.5 75q0 41 -16.5 67.5t-45 45t-65.5 31.5t-76 26q-49 14 -98 32.5t-88 48t-63.5 75.5t-24.5 118q0 137 90 226t256 89q59 0 102 -13t78 -28 q16 -6 29.5 -11t29.5 -9q-10 -16 -19 -39t-17.5 -45.5t-13.5 -42t-7 -31.5h-39q-16 47 -61 86t-109 39q-29 0 -57.5 -9t-52 -28.5t-38 -50.5t-14.5 -72q0 -43 17.5 -70.5t47.5 -47t66.5 -32.5t75.5 -26q49 -14 97.5 -30.5t86 -45t62.5 -74.5t25 -116q0 -59 -26 -117.5 t-75 -105.5t-118.5 -77t-155.5 -30q-92 0 -160 23.5t-115 52.5z" />
<glyph unicode="t" horiz-adv-x="579" d="M18 852q2 16 4.5 30.5t2.5 22.5q0 2 -2.5 17.5t-4.5 31.5q88 -6 136 -6q0 14 -1 27.5t-1 30.5q-2 35 -3.5 82t-3.5 86l174 71h25q-6 -76 -9 -149.5t-7 -149.5q27 0 88 1t127 5q-4 -20 -4 -30.5v-20.5v-20.5t4 -32.5q-27 2 -57.5 3t-60.5 1h-55.5h-43.5q-2 -23 -4.5 -81 t-4.5 -132t-3 -151.5t-2 -137.5q0 -55 3.5 -108.5t18 -94.5t46.5 -66.5t87 -25.5q16 0 46 5.5t54 11.5v-70q-39 -14 -82 -23.5t-84 -9.5q-131 0 -194.5 70t-63.5 192q0 6 1 39t2 71t2.5 71.5t1.5 42.5q4 82 5 176t3 221h-140z" />
<glyph unicode="u" horiz-adv-x="993" d="M78 311q0 57 1 105.5t3 89.5q2 37 2 70.5v68.5q0 72 -1 159t-3 173q51 -12 94 -12q41 0 94 12q-10 -119 -15 -271.5t-5 -302.5q0 -102 18.5 -155t40.5 -82q29 -31 70 -51.5t96 -20.5q78 0 134.5 37t80.5 86q14 31 22.5 57.5t12.5 68.5t5 109.5t1 182.5v176t-4 166 q51 -12 96 -12t92 12q-10 -158 -12 -311.5t-2 -313.5q0 -92 2 -185t6 -179q-47 12 -88 12q-16 0 -39.5 -4t-52.5 -10q2 35 3 63.5t1 54.5v37q-53 -78 -135 -125t-172 -47q-162 0 -254 89t-92 253z" />
<glyph unicode="v" horiz-adv-x="1005" d="M23 979q37 -6 67.5 -10t52.5 -4q41 0 97 12q61 -201 135 -391.5t160 -384.5q31 63 64.5 143t66 167t65.5 177t64 178q10 27 20 56.5t21 54.5q37 -12 67 -12q29 0 82 16q-14 -33 -32.5 -75t-32.5 -75q-94 -211 -186.5 -421.5t-166.5 -421.5q-37 12 -69 12q-27 0 -64 -10 l-10 6q-6 18 -13.5 35.5t-13.5 36.5q-84 219 -179 455.5t-195 455.5z" />
<glyph unicode="w" horiz-adv-x="1626" d="M47 979q35 -6 63.5 -10t51.5 -4q45 0 100 12q49 -188 111.5 -373.5t138.5 -384.5q27 63 60.5 157.5t69.5 198t71 209t59 193.5q37 -12 68 -12q29 0 63 12q47 -182 107.5 -357.5t128.5 -357.5l14 -41q27 68 61.5 161t71.5 195.5t75 206t71 193.5q39 -12 71 -12q14 0 36 5 t46 13q-119 -254 -222 -499.5t-192 -493.5q-4 0 -10 1t-10 1q-10 4 -20.5 6t-20.5 2q-12 0 -28.5 -4t-30.5 -8q-49 174 -110.5 353t-141.5 380q-25 -63 -58.5 -152.5t-69.5 -188.5t-70 -200.5t-60 -189.5q-4 0 -11.5 1t-11.5 1q-10 4 -21.5 6t-21.5 2t-20.5 -2t-20.5 -6 q-4 0 -7 -1t-7 -1l-10 8q-23 78 -63 193.5t-89 248.5t-104.5 273.5t-106.5 265.5z" />
<glyph unicode="x" horiz-adv-x="1058" d="M47 -18q98 119 198.5 245.5t192.5 245.5q-92 123 -189 253t-196 253q39 -6 72 -10t59 -4q45 0 113 12q57 -94 119.5 -187.5t132.5 -185.5q70 92 139.5 185.5t134.5 187.5q43 -12 74 -12q14 0 39 5t59 13q-98 -111 -197.5 -227.5t-191.5 -227.5q92 -131 195.5 -271 t208.5 -271q-37 6 -70 10t-57 4q-45 0 -109 -12q-66 104 -134.5 203.5t-141.5 203.5q-70 -98 -143.5 -203.5t-139.5 -203.5q-41 12 -70 12q-16 0 -41.5 -5t-56.5 -13z" />
<glyph unicode="y" horiz-adv-x="997" d="M39 979q33 -6 61.5 -10t51.5 -4q45 0 100 12q55 -174 126 -350t144 -357q4 -14 11.5 -27.5t13.5 -25.5q78 172 153.5 369.5t137.5 390.5q39 -12 73 -12q27 0 86 16q-14 -29 -46.5 -97.5t-77 -164.5t-96.5 -212t-106.5 -239t-107.5 -245.5t-99 -230t-80 -196t-50 -139.5 q-41 12 -74 13q-33 -1 -92 -17q86 141 155.5 276.5t125.5 268.5q-23 61 -59 148t-77 185.5t-84 200t-79.5 190.5t-66.5 156.5t-44 100.5z" />
<glyph unicode="z" horiz-adv-x="995" d="M45 -10v43q74 88 151.5 187t152.5 198.5t144.5 194t127.5 171.5q20 25 34.5 44.5t30.5 41.5q-35 -2 -102.5 -5t-147.5 -8t-157.5 -10t-133.5 -9q8 33 9 69q0 31 -9 70q78 -8 206 -10t313 -2q90 0 149 2t125 8v-43q-82 -106 -177 -230t-184.5 -242t-162 -215.5 t-111.5 -150.5q76 0 142.5 1t137 4t153.5 9.5t194 16.5q-10 -41 -10 -68q0 -31 10 -67q-31 0 -68 1t-69 3q-92 4 -189.5 5t-189.5 1q-135 0 -271 -6q-20 -2 -47.5 -3t-50.5 -1z" />
<glyph unicode="{" horiz-adv-x="497" d="M10 524v107q72 0 110 49t38 129v344q0 72 12 119t35.5 75.5t58.5 40t80 11.5h127v-94h-74q-49 0 -71.5 -29t-22.5 -123v-332q0 -92 -46 -151.5t-114 -94.5q78 -33 119 -88t41 -153v-332q0 -47 5 -76.5t17.5 -46t30 -23t41.5 -6.5h74v-94h-127q-45 0 -80 11.5t-58.5 40 t-35.5 75.5t-12 119v344q0 80 -38 129t-110 49z" />
<glyph unicode="|" horiz-adv-x="294" d="M78 -504v2038h127v-2038h-127z" />
<glyph unicode="}" horiz-adv-x="497" d="M25 -150h73q25 0 42.5 6.5t29.5 23t17.5 46t5.5 76.5v332q0 92 46 151.5t113 94.5q-78 33 -118.5 88t-40.5 153v332q0 94 -23 123t-72 29h-73v94h127q88 0 137 -51.5t49 -194.5v-344q0 -80 38 -129t109 -49v-107q-72 0 -109.5 -49t-37.5 -129v-344q0 -143 -49 -194.5 t-137 -51.5h-127v94z" />
<glyph unicode="~" horiz-adv-x="1064" d="M59 475q51 82 106.5 129t151.5 47q66 0 110 -14t85 -35q63 -29 117.5 -58.5t118.5 -29.5q29 0 56 15.5t52 39t44.5 52t33.5 53.5l72 -103q-23 -31 -48.5 -63.5t-57.5 -59t-69.5 -43t-82.5 -16.5q-57 0 -112.5 21.5t-123.5 56.5q-51 27 -96 43t-86 16q-43 0 -75 -15 t-54.5 -40t-39 -53.5t-28.5 -55.5z" />
<glyph unicode="&#xa1;" horiz-adv-x="358" d="M51 870q0 51 36 88t89 37t89 -36.5t36 -88.5q0 -53 -36 -89t-89 -36t-89 36t-36 89zM68 -350q0 14 5 82.5t13 171t18.5 226.5t20.5 249q4 59 10 125.5t10 122.5h62q4 -57 10 -122t10 -126q4 -59 11.5 -134t13.5 -154t12 -155.5t10.5 -138t7.5 -101.5t3 -46q0 -59 -33 -84 t-76 -25t-75.5 24.5t-32.5 84.5z" />
<glyph unicode="&#xa2;" horiz-adv-x="983" d="M61 483q0 119 36 209t95.5 151.5t139.5 97.5t166 48v6q0 41 -2 97.5t-11 113.5q45 -16 66 -16q18 0 63 16q-8 -57 -10 -111.5t-2 -97.5v-2q111 -4 196 -31.5t126 -64.5q-16 -35 -28.5 -70.5t-21.5 -74.5h-26q-14 25 -38 51t-54.5 49t-69.5 38t-84 19q2 -211 3 -417.5 t3 -419.5q37 2 78 14t80 31.5t73.5 46.5t61.5 57l23 -16q-4 -31 -8.5 -59.5t-6.5 -51.5q-57 -45 -139 -80.5t-168 -42.5v-6q0 -43 3 -104.5t9 -116.5q-45 16 -63 16q-20 0 -66 -16q6 49 9.5 114.5t3.5 108.5v6q-84 8 -162 42t-139.5 95.5t-98.5 152.5t-37 218zM260 485 q0 -346 238 -399v815q-129 -33 -183.5 -145.5t-54.5 -270.5z" />
<glyph unicode="&#xa3;" horiz-adv-x="1038" d="M25 -10q2 20 4 40.5t2 35.5q0 23 -1 40t-3 33h39q84 0 136 23.5t80.5 66.5t39 103.5t10.5 134.5q0 47 -5 98t-12 97v6q-49 -2 -101 -3t-99 -1q6 25 7 36t1 21t-1 22.5t-7 34.5q39 -10 87 -12t99 -2q-4 31 -6 64.5t-2 62.5q0 141 40 235.5t101.5 149.5t135 77.5 t143.5 22.5q37 0 76.5 -7t76.5 -20.5t68 -36t51 -52.5q-16 -20 -38.5 -51t-49.5 -76l-18 16q-16 66 -61.5 99.5t-104.5 33.5q-53 0 -96.5 -20.5t-74 -55.5t-47 -83t-16.5 -103q0 -63 2 -113.5t6 -97.5v-22.5t2 -22.5q66 0 116 1t102 5q18 2 45.5 2t50.5 2q-6 -35 -6 -53 q0 -2 1 -19.5t5 -37.5h-33q-72 2 -134.5 3t-135.5 1q2 -16 2 -38v-44q0 -150 -52.5 -262.5t-127.5 -180.5q125 2 260 6.5t256 10.5q35 2 74.5 3t72.5 3q-4 -29 -6 -52.5t-2 -39.5t2 -39t6 -45q-29 0 -64.5 1t-64.5 3q-86 4 -179 5t-179 1q-172 0 -346 -6q-27 -2 -64 -3 t-63 -1z" />
<glyph unicode="&#xa4;" horiz-adv-x="1175" d="M72 252l110 113q-49 66 -76.5 143.5t-27.5 163.5q0 90 26.5 170t79.5 143q-29 29 -57.5 59.5t-52.5 57.5l86 88l114 -115q66 49 147 79t167 30t166 -29t145 -80l113 115l88 -90l-113 -115q51 -61 81 -143t30 -170q0 -86 -28 -166t-79 -146l109 -108l-88 -92l-113 110 q-66 -49 -145.5 -78.5t-165.5 -29.5t-168 30.5t-146 79.5q-29 -29 -58.5 -57.5t-55.5 -54.5zM203 672q0 -82 29.5 -154t82 -126t122 -85t151.5 -31t151.5 31t121.5 85t82 126t30 154t-30 154.5t-82 126t-121.5 85t-151.5 31.5t-151.5 -31.5t-122 -85t-82 -126t-29.5 -154.5z " />
<glyph unicode="&#xa5;" horiz-adv-x="1124" d="M20 1407q37 -6 70 -10t57 -4q47 0 115 12q16 -41 53 -110.5t84 -150.5t98.5 -167t94.5 -158q98 152 188 299.5t164 286.5q39 -12 74 -12q16 0 39.5 5t54.5 13q-39 -53 -87 -119.5t-100.5 -143.5t-107.5 -158t-108 -161q-12 -20 -21.5 -32.5t-23.5 -32.5q84 0 163.5 1 t159.5 3q-6 -35 -6 -53q0 -8 1 -22.5t5 -30.5q-29 0 -64.5 1t-64.5 1q-59 2 -111.5 3t-111.5 1v-156h176t176 2q-6 -31 -6 -51q0 -8 1 -22.5t5 -30.5q-88 4 -176 6t-176 2q0 -113 2 -223.5t10 -206.5q-53 12 -102 12q-47 0 -103 -12q8 109 11.5 215t3.5 215q-86 0 -174 -2 t-174 -6q2 16 4 30.5t2 22.5t-2 21.5t-4 29.5q86 -2 174 -2h174v156q-57 0 -110.5 -1t-110.5 -3q-29 0 -64 -1t-63 -1q2 16 4 30.5t2 22.5t-2 22.5t-4 30.5q82 -2 160.5 -3t160.5 -1q-35 51 -67.5 103.5t-65.5 103.5q-66 104 -137.5 218t-139.5 218z" />
<glyph unicode="&#xa6;" horiz-adv-x="266" d="M78 -354v727h127v-727h-127zM78 655v727h127v-727h-127z" />
<glyph unicode="&#xa7;" horiz-adv-x="894" d="M53 647q0 49 13.5 89t34 73t44 55.5t43.5 36.5q-12 18 -21 34.5t-15.5 38t-10.5 48.5t-4 65q0 66 23.5 127.5t69.5 109.5t116 77t162 29q102 0 171 -42t112 -92q-23 -20 -42.5 -57t-23.5 -72h-41q-8 33 -25.5 63t-44 53.5t-61.5 37.5t-74 14q-41 0 -80 -13t-69.5 -37.5 t-49 -60.5t-18.5 -81q0 -49 22.5 -86t59.5 -63.5t84 -48t98 -40.5q57 -25 114.5 -50.5t102.5 -60t73 -85t28 -123.5q0 -43 -11.5 -83t-28 -74t-35.5 -60.5t-38 -44.5q33 -31 52.5 -74t19.5 -107q0 -78 -29 -149.5t-84 -127.5t-136 -90t-185 -34q-39 0 -81 7t-82 20.5t-75 30 t-59 34.5q10 39 16 93.5t6 92.5h43q8 -25 29.5 -56.5t55.5 -60t84 -48t118 -19.5q51 0 97 19.5t80 52.5t54.5 74t20.5 84q0 47 -22.5 80.5t-60.5 59t-87 46t-100 41.5q-63 25 -127 52.5t-114 67.5t-81 96t-31 138zM168 715q0 -72 50 -119t159 -94q129 -55 201.5 -87 t103.5 -57q16 25 31.5 59t15.5 81q0 35 -8 61.5t-28.5 48t-53.5 40t-82 40.5q-90 41 -147.5 67.5t-93 45t-53 31t-30.5 22.5q-23 -23 -44 -60.5t-21 -78.5zM195 893v2v-2z" />
<glyph unicode="&#xa8;" horiz-adv-x="770" d="M72 1296q0 47 32.5 80t79.5 33t81 -33t34 -80t-34 -79.5t-81 -32.5t-79.5 32.5t-32.5 79.5zM469 1296q0 47 34 80t81 33t79.5 -33t32.5 -80t-32.5 -79.5t-79.5 -32.5t-81 32.5t-34 79.5z" />
<glyph unicode="&#xa9;" horiz-adv-x="1587" d="M59 696q0 152 57.5 286t157 233.5t233.5 157t286 57.5t285.5 -57.5t233 -157t157 -233.5t57.5 -286t-57.5 -286t-157 -233t-233.5 -156.5t-285 -57.5q-152 0 -286 57.5t-233.5 156.5t-157 233t-57.5 286zM164 696q0 -131 49 -246.5t133 -202.5t198.5 -137.5t248.5 -50.5 q131 0 246.5 50.5t199.5 137.5t133 202.5t49 246.5t-49 248t-133 204t-199.5 137t-246.5 50q-133 0 -248 -50t-199 -137t-133 -204t-49 -248zM336 692q0 123 40 215t108.5 153.5t160.5 92.5t199 31q100 0 174 -17.5t123 -46.5q-10 -23 -18.5 -51.5t-10.5 -62.5l-25 -5 q-14 12 -34.5 31t-49 35t-66.5 27.5t-87 11.5q-68 0 -133.5 -18.5t-115.5 -65.5t-81 -127t-31 -205q0 -84 24 -155.5t69 -124t110.5 -82t151.5 -29.5q41 0 80 10t74.5 26.5t64.5 36t49 38.5l33 -4q-12 -29 -15.5 -54.5t-3.5 -42.5q-41 -27 -122.5 -57.5t-182.5 -30.5 q-106 0 -195 33t-153.5 94.5t-100.5 148t-36 195.5z" />
<glyph unicode="&#xaa;" horiz-adv-x="698" d="M55 913q0 78 43 117t166 60q61 12 97 19t53.5 13t21.5 13.5t4 19.5q0 92 -39 118.5t-94 26.5q-57 0 -94 -27.5t-49 -53.5h-41v90q45 23 98 45t131 22q35 0 75 -8t72.5 -29.5t54 -60.5t21.5 -102q0 -41 -2 -89.5t-4 -93.5q-2 -35 -2 -63.5v-48.5q0 -35 10.5 -47.5 t22.5 -12.5t26.5 6.5t22.5 10.5v-54q-16 -10 -45 -20t-59 -10q-41 0 -64.5 21.5t-31.5 53.5q-41 -35 -89.5 -55t-105.5 -20q-35 0 -69.5 7t-63.5 25.5t-47.5 49t-18.5 77.5zM201 926q0 -47 29.5 -72t70.5 -25t79 27t60 49v168q-16 -6 -38.5 -11t-41.5 -9q-29 -6 -57.5 -12.5 t-51 -20.5t-36.5 -35.5t-14 -58.5z" />
<glyph unicode="&#xab;" horiz-adv-x="739" d="M29 479l266 395q12 -23 36.5 -42t57.5 -23l-231 -328q53 -86 109.5 -174t109.5 -170q-29 -4 -55.5 -23.5t-36.5 -41.5zM322 479l266 395q12 -23 36.5 -42t57.5 -23l-231 -328q53 -86 109 -174t110 -170q-29 -4 -55.5 -23.5t-36.5 -41.5z" />
<glyph unicode="&#xac;" horiz-adv-x="1130" d="M2 653v127h1040v-563h-124v436h-916z" />
<glyph unicode="&#xad;" d="M82 403v146h522v-146h-522z" />
<glyph unicode="&#xae;" horiz-adv-x="1587" d="M59 696q0 152 57.5 286t157 233.5t233.5 157t286 57.5t285.5 -57.5t233 -157t157 -233.5t57.5 -286t-57.5 -286t-157 -233t-233.5 -156.5t-285 -57.5q-152 0 -286 57.5t-233.5 156.5t-157 233t-57.5 286zM164 696q0 -131 49 -246.5t133 -202.5t198.5 -137.5t248.5 -50.5 q131 0 246.5 50.5t199.5 137.5t133 202.5t49 246.5t-49 248t-133 204t-199.5 137t-246.5 50q-133 0 -248 -50t-199 -137t-133 -204t-49 -248zM498 244q2 16 3 36.5t3 36.5q4 53 7 111.5t3 112.5v346q0 66 -4 142.5t-12 141.5q98 -12 178 -12q20 0 38.5 1t41.5 3q18 2 40.5 4 t43.5 2q111 0 187.5 -52t76.5 -161q0 -61 -26.5 -106t-66.5 -77t-87 -50t-86 -25q20 -27 42.5 -56.5t47.5 -61.5q35 -45 70.5 -91.5t69.5 -88.5t63.5 -75.5t52.5 -52.5v-26q-47 12 -86 12t-84 -12q-145 213 -324 434h-51v-131q0 -68 3 -143.5t11 -161.5q-25 6 -44 10t-31 4 q-16 0 -36 -4t-44 -10zM639 756q25 -6 76 -6q49 0 93 10t78 33.5t53 59.5t19 89q0 76 -50 117t-128 41q-35 0 -67.5 -2t-63.5 -6q-4 -43 -7 -90.5t-3 -90.5v-155z" />
<glyph unicode="&#xaf;" horiz-adv-x="737" d="M82 1219v127h571v-127h-571z" />
<glyph unicode="&#xb0;" horiz-adv-x="716" d="M53 1075q0 61 23.5 116.5t64.5 96.5t96.5 64.5t118.5 23.5t118.5 -23.5t96.5 -64.5t64.5 -96t23.5 -117q0 -63 -23.5 -118.5t-64.5 -96.5t-96 -64.5t-119 -23.5q-63 0 -118.5 23.5t-96.5 64.5t-64.5 96.5t-23.5 118.5zM147 1075q0 -43 16.5 -82t45.5 -66.5t66.5 -44 t80.5 -16.5t81 16.5t66.5 44t45 66.5t16.5 82t-16.5 81t-45 65.5t-66.5 44t-81 16.5t-80.5 -16.5t-66.5 -44t-45.5 -65.5t-16.5 -81z" />
<glyph unicode="&#xb1;" horiz-adv-x="1069" d="M14 0v125h1041v-125h-1041zM14 549v125h457v368h127v-368h457v-125h-457v-367h-127v367h-457z" />
<glyph unicode="&#xb2;" horiz-adv-x="690" d="M47 524v47q20 20 42 39t38 35q80 76 144.5 138.5t108.5 121t68.5 116.5t24.5 126q0 86 -41 124t-96 38q-39 0 -67.5 -13.5t-47 -33t-30 -41t-13.5 -39.5l-22 -4l-54 69q47 70 107.5 99.5t144.5 29.5q117 0 195 -53t78 -170q0 -49 -13.5 -93t-56.5 -98.5t-122 -130 t-210 -190.5h98.5h107.5t106.5 1t95.5 3q-10 -41 -10 -57q0 -10 2 -25.5t10 -38.5q-72 4 -148.5 7.5t-148.5 3.5q-70 0 -145.5 -3.5t-145.5 -7.5z" />
<glyph unicode="&#xb3;" horiz-adv-x="665" d="M47 569l25 93h22q20 -23 64.5 -46.5t103.5 -23.5q92 0 144.5 52t52.5 132q0 47 -13.5 79t-35 50.5t-49 26.5t-56.5 8q-23 0 -49.5 -5t-48.5 -11q12 33 12 49q0 20 -14 61q29 -14 49 -19t35 -5q39 0 65.5 16t41 41t20.5 54.5t6 58.5q0 66 -38 97.5t-87 31.5q-47 0 -85 -27 t-52 -61l-25 -2l-35 79q29 27 81 52.5t145 25.5q102 0 171.5 -45t69.5 -141q0 -82 -43 -131t-100 -74q33 -6 66.5 -19.5t60.5 -36t44 -57t17 -84.5q0 -119 -94 -192.5t-252 -73.5q-76 0 -128 14.5t-91 32.5z" />
<glyph unicode="&#xb4;" horiz-adv-x="577" d="M37 1128l315 320q23 23 47.5 37t51.5 14q23 0 49 -19.5t26 -56.5q0 -35 -41 -73.5t-99 -76.5t-122.5 -76t-113.5 -69h-113z" />
<glyph unicode="&#xb5;" horiz-adv-x="944" d="M84 -543q0 72 1 141.5t3 133.5q2 84 3 187.5t1 207.5q0 147 -1 269t-3 233q0 39 -1 85t-1 92v90v81q51 -12 94 -12q41 0 94 12q-10 -119 -15 -271.5t-5 -302.5q0 -102 18.5 -155t40.5 -82q29 -31 70 -51.5t96 -20.5q78 0 134.5 37t80.5 86q14 31 22.5 57.5t12.5 68.5 t5 109.5t1 182.5v176t-4 166q51 -12 96 -12t93 12q-10 -158 -12.5 -311.5t-2.5 -313.5q0 -92 2 -185t6 -179q-47 12 -88 12q-16 0 -39.5 -4t-52.5 -10q2 35 3 63.5t1 54.5v37q-53 -78 -135 -125t-172 -47q-55 0 -98 8.5t-78 40.5q0 -143 3 -278t19 -283q-53 12 -98 13 q-43 0 -94 -13z" />
<glyph unicode="&#xb6;" horiz-adv-x="1015" d="M20 1012q0 193 110 287t302 94h539v-66l-152 -24v-1534h-94v1519l-109 -18v-1501h-92v819q-129 0 -224 31.5t-157.5 88t-92.5 134.5t-30 170z" />
<glyph unicode="&#xb7;" horiz-adv-x="374" d="M53 629q0 53 39 92t92 39t92 -39t39 -92q0 -55 -38.5 -93t-92.5 -38q-53 0 -92 38t-39 93z" />
<glyph unicode="&#xb8;" horiz-adv-x="503" d="M25 -414l34 84q27 -10 67 -19t85 -9q47 0 79 19.5t32 55.5q0 39 -27 54.5t-66 15.5q-61 0 -88 -16l-24 22l86 227h94l-49 -141q20 4 43 4q84 0 130 -42t46 -111q0 -45 -20.5 -79t-54.5 -57.5t-79 -35t-96 -11.5q-63 0 -112.5 13.5t-79.5 25.5z" />
<glyph unicode="&#xb9;" horiz-adv-x="468" d="M55 1217v32q84 27 167 60.5t143 66.5h32q-6 -78 -9 -160.5t-3 -162.5v-203q0 -78 4 -163t10 -167q-25 6 -45 10.5t-37 4.5q-14 0 -34.5 -4.5t-44.5 -10.5q6 84 9 168t3 162v395q-37 -18 -75 -36.5t-73 -37.5q-6 12 -19 25.5t-28 20.5z" />
<glyph unicode="&#xba;" horiz-adv-x="808" d="M70 1065q0 86 29.5 145.5t76.5 96t107.5 53t122.5 16.5q59 0 118.5 -16.5t106.5 -53t76.5 -96t29.5 -145.5t-29.5 -145.5t-76.5 -96.5t-106.5 -53t-118.5 -16q-61 0 -122 16t-108 53t-76.5 96.5t-29.5 145.5zM223 1065q0 -47 9.5 -90t31 -78t56 -55.5t86.5 -20.5 q49 0 82.5 20.5t55 55.5t31 78t9.5 90q0 45 -9.5 89t-31 78t-55 55.5t-82.5 21.5q-51 0 -86 -21.5t-56.5 -55.5t-31 -78t-9.5 -89z" />
<glyph unicode="&#xbb;" horiz-adv-x="741" d="M57 145l232 330l-219 342q29 4 55.5 23.5t36.5 44.5l256 -408l-266 -397q-12 23 -37 42t-58 23zM350 145l232 330l-220 342q29 4 55.5 23.5t37.5 44.5l256 -408l-267 -397q-12 23 -36.5 42t-57.5 23z" />
<glyph unicode="&#xbc;" horiz-adv-x="1560" d="M43 1217v32q84 27 167 60.5t142 66.5h33q-6 -78 -9 -160.5t-3 -162.5v-203q0 -78 4 -163t10 -167q-25 6 -45 10.5t-37 4.5q-16 0 -35.5 -4.5t-44.5 -10.5q6 84 9.5 168t3.5 162v395q-37 -18 -75 -36.5t-73 -37.5q-6 12 -19.5 25.5t-27.5 20.5zM371 -66l571 1471 q18 -6 30.5 -10t22.5 -4q16 0 64 18l-572 -1470q-18 6 -30.5 10t-22.5 4q-18 0 -63 -19zM856 211v57q106 141 215 281.5t219 281.5q27 -10 58 -10q12 0 29.5 4t33.5 9q-8 -129 -9 -260.5t-1 -260.5q59 0 121 17q-4 -18 -8.5 -34.5t-4.5 -27.5q0 -10 4.5 -26.5t8.5 -32.5 q-27 4 -58.5 6t-62.5 2q0 -53 2 -114.5t6 -116.5q-25 6 -44 10t-34 4q-16 0 -35.5 -4t-42.5 -10q6 66 9.5 125t3.5 106h-118t-116 -1t-101 -2t-75 -3zM999 313h267v359q-16 -20 -31.5 -39t-32.5 -39q-51 -68 -105.5 -140.5t-97.5 -140.5z" />
<glyph unicode="&#xbd;" horiz-adv-x="1533" d="M43 1217v32q84 27 167 60.5t142 66.5h33q-6 -78 -9 -160.5t-3 -162.5v-203q0 -78 4 -163t10 -167q-25 6 -45 10.5t-37 4.5q-16 0 -35.5 -4.5t-44.5 -10.5q6 84 9.5 168t3.5 162v395q-37 -18 -76 -36.5t-72 -37.5q-6 12 -19.5 25.5t-27.5 20.5zM365 -66l571 1471 q18 -6 30.5 -10t20.5 -4q18 0 66 18l-572 -1470q-18 6 -30.5 10t-22.5 4q-18 0 -63 -19zM909 -10v47q20 20 42 37.5t38 36.5q80 76 144.5 138t108.5 120.5t68.5 117t24.5 125.5q0 86 -41 124t-96 38q-39 0 -67.5 -13t-47 -32.5t-30 -42t-13.5 -41.5l-22 -2l-53 70 q47 68 107.5 98.5t144.5 30.5q117 0 194.5 -53.5t77.5 -170.5q0 -49 -13.5 -93t-56.5 -99t-121.5 -131t-210.5 -191h98.5t108 1t106.5 2.5t95 3.5q-4 -20 -7 -34t-3 -24t2 -25.5t10 -37.5q-72 4 -148.5 7t-148.5 3q-70 0 -145.5 -3t-145.5 -7z" />
<glyph unicode="&#xbe;" horiz-adv-x="1644" d="M33 569l24 93h23q23 -23 66.5 -46.5t103.5 -23.5q90 0 143 52t53 132q0 47 -13 79t-34.5 50.5t-49 26.5t-56.5 8q-23 0 -50.5 -5t-49.5 -11q12 33 12 49q0 20 -15 61q29 -14 50.5 -19t35.5 -5q39 0 65 16t41 41t21.5 54.5t6.5 58.5q0 66 -39 97.5t-86 31.5q-49 0 -86 -27 t-52 -61l-24 -2l-37 79q31 27 82 52.5t145 25.5q102 0 172 -45t70 -141q0 -82 -44 -131t-99 -74q33 -6 65.5 -19.5t60 -36t45 -57t17.5 -84.5q0 -119 -95 -192.5t-251 -73.5q-76 0 -129 14.5t-92 32.5zM475 -66l572 1471q18 -6 30.5 -10t22.5 -4q18 0 65 18l-571 -1470 q-18 6 -30.5 10t-22.5 4q-20 0 -66 -19zM938 211v57q106 141 215 281.5t219 281.5q27 -10 58 -10q12 0 28.5 4t32.5 9q-8 -129 -9 -260.5t-1 -260.5q61 0 123 17q-4 -18 -8.5 -34.5t-4.5 -27.5q0 -10 4 -26.5t9 -32.5q-27 4 -59 6t-64 2q0 -53 2 -114.5t6 -116.5 q-23 6 -42.5 10t-33.5 4q-16 0 -35.5 -4t-44.5 -10q6 66 9.5 125t3.5 106h-118t-116 -1t-100 -2t-74 -3zM1081 313h265v359q-16 -20 -31 -39t-31 -39q-53 -68 -106.5 -140.5t-96.5 -140.5z" />
<glyph unicode="&#xbf;" horiz-adv-x="585" d="M23 -182q0 61 17 111.5t46 95.5t64.5 83.5t72.5 75.5q61 59 109.5 121t48.5 129q0 37 -23.5 73t-70.5 36q-23 0 -41.5 -8.5t-28.5 -12.5l-27 19q10 12 18.5 31.5t10.5 35.5q31 12 82 13q27 0 64.5 -12.5t73.5 -40t61.5 -72.5t25.5 -111q0 -55 -16 -101t-43 -87t-60.5 -77 t-66.5 -69q-61 -61 -110.5 -122.5t-49.5 -137.5q0 -72 51.5 -112.5t112.5 -40.5q53 0 103.5 29.5t87.5 76.5l14 -131q-41 -27 -93.5 -49.5t-123.5 -22.5q-76 0 -133.5 22.5t-96.5 60.5t-59 88t-20 106zM209 870q0 51 36 88t89 37q51 0 88 -36.5t37 -88.5q0 -53 -37 -89 t-88 -36q-53 0 -89 36t-36 89z" />
<glyph unicode="&#xc0;" horiz-adv-x="1355" d="M31 -14q162 356 324.5 719.5t316.5 724.5h55q35 -84 75 -179.5t81 -193.5q63 -154 131.5 -318t132 -311t115 -264t79.5 -178q-37 6 -68.5 10t-53.5 4q-47 0 -115 -12q-27 90 -70 202.5t-90 225.5q-12 33 -24.5 59.5t-22.5 54.5q-66 2 -129 3.5t-129 1.5 q-61 0 -118.5 -1.5t-119.5 -3.5q-61 -154 -114.5 -298t-81.5 -244q-43 12 -82 12q-20 0 -43 -4t-49 -10zM360 1772q0 35 28 54t50 19q25 0 50.5 -14t48.5 -37l315 -317h-113l-301 190q-27 16 -52.5 40t-25.5 65zM449 645q23 0 46 -1t46 -1q29 -2 55.5 -2h52.5q57 0 105.5 1 t105.5 3l-209 473q-53 -125 -101 -237.5t-101 -235.5z" />
<glyph unicode="&#xc1;" horiz-adv-x="1357" d="M12 -14q162 356 325 719.5t316 724.5h56q35 -84 74.5 -179.5t80.5 -193.5q63 -154 132 -318t132.5 -311t114.5 -264t80 -178q-37 6 -68.5 10t-54.5 4q-47 0 -115 -12q-27 90 -69.5 202.5t-89.5 225.5q-12 33 -24.5 59.5t-22.5 54.5q-66 2 -129.5 3.5t-128.5 1.5 q-61 0 -119 -1.5t-119 -3.5q-61 -154 -114.5 -298t-82.5 -244q-43 12 -82 12q-20 0 -42.5 -4t-49.5 -10zM430 645q23 0 46.5 -1t45.5 -1q29 -2 55.5 -2h53.5q57 0 105 1t106 3l-209 473q-53 -125 -101.5 -237.5t-101.5 -235.5zM504 1477l315 317q23 23 47.5 37t51.5 14 q23 0 50 -19.5t27 -53.5q0 -41 -25.5 -65t-51.5 -40q-74 -47 -150 -95t-152 -95h-112z" />
<glyph unicode="&#xc2;" horiz-adv-x="1368" d="M27 -14q162 356 324.5 719.5t316.5 724.5h55q35 -84 75 -179.5t81 -193.5q63 -154 131.5 -318t132 -311t115 -264t79.5 -178q-37 6 -68.5 10t-54.5 4q-47 0 -114 -12q-27 90 -70 202.5t-90 225.5q-12 33 -24.5 59.5t-22.5 54.5q-66 2 -129.5 3.5t-128.5 1.5 q-61 0 -118.5 -1.5t-119.5 -3.5q-61 -154 -114.5 -298t-81.5 -244q-43 12 -82 12q-20 0 -43 -4t-49 -10zM346 1477l264 356h146l264 -356h-100l-238 206q-55 -49 -117.5 -103t-118.5 -103h-100zM444 645q23 0 46.5 -1t46.5 -1q29 -2 55 -2h53q57 0 105.5 1t105.5 3l-209 473 q-53 -125 -101 -237.5t-102 -235.5z" />
<glyph unicode="&#xc3;" horiz-adv-x="1355" d="M20 -14q162 356 325 719.5t317 724.5h55q35 -84 74.5 -179.5t80.5 -193.5q63 -154 132 -318t132.5 -311t115 -264t79.5 -178q-37 6 -68.5 10t-54.5 4q-47 0 -114 -12q-27 90 -70 202.5t-90 225.5q-12 33 -24.5 59.5t-22.5 54.5q-66 2 -129.5 3.5t-128.5 1.5 q-61 0 -118.5 -1.5t-119.5 -3.5q-61 -154 -114.5 -298t-81.5 -244q-43 12 -82 12q-20 0 -43 -4t-50 -10zM332 1526q6 39 22.5 80t44 74.5t66.5 54t90 20.5q35 0 63.5 -10t88.5 -39q53 -27 77.5 -36t51.5 -9q41 0 67.5 30.5t38.5 71.5h80q-4 -27 -17.5 -67.5t-40 -78.5 t-69.5 -64.5t-107 -26.5q-29 0 -66.5 12t-82.5 37q-49 27 -76.5 36t-50.5 9q-41 0 -60.5 -20.5t-37.5 -73.5h-82zM438 645q23 0 46.5 -1t45.5 -1q29 -2 55.5 -2h53.5q57 0 105.5 1t105.5 3l-209 473q-53 -125 -101 -237.5t-102 -235.5z" />
<glyph unicode="&#xc4;" horiz-adv-x="1353" d="M20 -14q162 356 325 719.5t317 724.5h55q35 -84 74.5 -179.5t80.5 -193.5q63 -154 132 -318t132.5 -311t115 -264t79.5 -178q-37 6 -68.5 10t-54.5 4q-47 0 -114 -12q-27 90 -70 202.5t-90 225.5q-12 33 -24.5 59.5t-22.5 54.5q-66 2 -129.5 3.5t-128.5 1.5 q-61 0 -118.5 -1.5t-119.5 -3.5q-61 -154 -114.5 -298t-81.5 -244q-43 12 -82 12q-20 0 -43 -4t-50 -10zM365 1645q0 47 32.5 79.5t79.5 32.5t81 -32.5t34 -79.5t-34 -81t-81 -34t-79.5 34t-32.5 81zM438 645q23 0 46.5 -1t45.5 -1q29 -2 55.5 -2h53.5q57 0 105.5 1t105.5 3 l-209 473q-53 -125 -101 -237.5t-102 -235.5zM762 1645q0 47 33.5 79.5t81.5 32.5q47 0 79.5 -32.5t32.5 -79.5t-32.5 -81t-79.5 -34t-81 34t-34 81z" />
<glyph unicode="&#xc5;" horiz-adv-x="1366" d="M27 -14q162 356 324.5 719.5t316.5 724.5h55q35 -84 75 -179.5t81 -193.5q63 -154 131.5 -318t132 -311t115 -264t79.5 -178q-37 6 -68.5 10t-54.5 4q-47 0 -114 -12q-27 90 -70 202.5t-90 225.5q-12 33 -24.5 59.5t-22.5 54.5q-66 2 -129.5 3.5t-128.5 1.5 q-61 0 -118.5 -1.5t-119.5 -3.5q-61 -154 -114.5 -298t-81.5 -244q-43 12 -82 12q-20 0 -43 -4t-49 -10zM444 645q23 0 46.5 -1t46.5 -1q29 -2 55 -2h53q57 0 105.5 1t105.5 3l-209 473q-53 -125 -101 -237.5t-102 -235.5zM467 1659q0 92 62.5 154.5t154.5 62.5 q45 0 84 -17.5t67.5 -46t46 -68.5t17.5 -85t-17.5 -84t-46 -68.5t-68.5 -46t-85 -16.5t-84 16.5t-68.5 46t-46 68.5t-16.5 84zM571 1659q0 -45 32 -78t79 -33t80 33t33 78q0 47 -32 80t-79 33t-80 -33t-33 -80z" />
<glyph unicode="&#xc6;" horiz-adv-x="1697" d="M12 -14q92 131 207 304t238 362.5t245.5 384t231.5 366.5q86 -4 174 -7t174 -3t176 3t172 7q-6 -23 -10 -40t-4 -32q0 -16 4 -35.5t10 -42.5q-33 6 -67.5 13.5t-88 11.5t-132 7t-199.5 3q0 -18 -1 -38.5t-3 -37.5q-4 -66 -5 -134t-1 -134v-156q109 0 178 1.5t115.5 3.5 t75 4t52.5 4q6 0 18.5 1t18.5 1q-6 -18 -10 -35.5t-4 -30.5q0 -12 4 -29.5t10 -37.5q-6 0 -19 1t-20 1q-25 2 -53.5 4t-74.5 4t-115.5 3t-175.5 1v-192q0 -152 6 -299q2 -23 3 -44.5t1 -44.5q215 0 331.5 8.5t170.5 16.5q-6 -23 -10.5 -39t-4.5 -31q0 -14 4 -30.5t11 -38.5 q-88 4 -180.5 7t-178.5 3t-179 -3t-179 -7q14 141 16 263t2 245l-450 10q-78 -125 -147.5 -255t-135.5 -265q-49 12 -88 12q-25 0 -53.5 -4t-59.5 -10zM553 614l393 -12v623h-6q-100 -156 -193.5 -304.5t-193.5 -306.5z" />
<glyph unicode="&#xc7;" horiz-adv-x="1288" d="M35 696q0 174 56 310.5t157.5 230.5t243 143.5t311.5 49.5q133 0 249.5 -29t202.5 -68q-16 -31 -27 -78t-18 -79q0 -4 -1 -9.5t-1 -7.5l-26 -4q-20 25 -56 55.5t-84.5 58t-109 47t-129.5 19.5q-117 0 -217.5 -37.5t-174 -115.5t-115.5 -199t-42 -287t42 -285.5 t115.5 -198.5t174 -116t217.5 -37q72 0 134 18.5t114.5 44t93.5 55.5t69 52l19 -16l-21 -131q-20 -16 -61 -36.5t-97.5 -39t-126 -31t-145.5 -12.5h-16q-8 -23 -15.5 -45t-17.5 -49q8 2 18.5 2h22.5q84 0 131 -42t47 -112q0 -45 -20.5 -78.5t-54 -57t-78.5 -35t-97 -11.5 q-66 0 -113.5 13.5t-80.5 25.5l37 84q25 -10 64.5 -18.5t86.5 -8.5q45 0 78 18.5t33 55.5q0 39 -27.5 55.5t-64.5 16.5q-61 0 -90 -19l-25 25l74 182q-141 16 -259 72.5t-202 149t-131 221.5t-47 288z" />
<glyph unicode="&#xc8;" horiz-adv-x="823" d="M72 -10q6 133 11 269t5 265v348q0 131 -5 266.5t-11 264.5q92 -4 185 -7t185 -3t186.5 3t184.5 7q-4 -20 -5 -36.5t-1 -33.5q0 -16 1 -33.5t5 -37.5q-29 2 -60.5 4t-56.5 4q-43 4 -86 7t-91 6t-106.5 4t-131.5 1q0 -25 -1 -44t-4 -42q-2 -35 -3 -77t-1 -83q0 -47 1 -92 t1 -86v-78q166 0 282 5.5t212 15.5q-4 -18 -6 -37.5t-2 -36.5q0 -39 8 -74q-55 6 -125 10.5t-139.5 6.5t-130 3t-99.5 1q0 -16 -1 -37.5t-1 -53.5v-78v-114q0 -117 1 -185.5t3 -107.5q68 0 143 1t148.5 4.5t140 8.5t117.5 15q-10 -51 -10 -74q0 -14 2 -32.5t6 -36.5 q-90 4 -186 7t-188 3t-188.5 -3t-188.5 -7zM111 1772q0 35 27.5 54t49.5 19q27 0 51.5 -14t47.5 -37l315 -317h-113l-301 190q-27 16 -52 40t-25 65z" />
<glyph unicode="&#xc9;" horiz-adv-x="821" d="M49 -10q6 133 11.5 269t5.5 265v348q0 131 -5.5 266.5t-11.5 264.5q92 -4 185.5 -7t185.5 -3t186 3t185 7q-4 -20 -5.5 -36.5t-1.5 -33.5q0 -16 1 -33.5t6 -37.5q-29 2 -61 4t-56 4q-43 4 -86 7t-91 6t-106.5 4t-132.5 1q0 -25 -1 -44t-3 -42q-2 -35 -3 -77t-1 -83 q0 -47 1 -92t1 -86v-78q166 0 281.5 5.5t211.5 15.5q-4 -18 -6 -37.5t-2 -36.5q0 -39 8 -74q-55 6 -124.5 10.5t-139 6.5t-130 3t-99.5 1q0 -16 -1 -37.5t-1 -53.5v-78v-114q0 -117 1 -185.5t3 -107.5q68 0 142.5 1t148 4.5t140.5 8.5t118 15q-10 -51 -10 -74q0 -14 2 -32.5 t6 -36.5q-90 4 -186.5 7t-188.5 3t-188.5 -3t-188.5 -7zM250 1477l315 317q23 23 48.5 37t50.5 14q23 0 50 -19.5t27 -53.5q0 -41 -25.5 -65t-51.5 -40q-74 -47 -150 -95t-152 -95h-112z" />
<glyph unicode="&#xca;" horiz-adv-x="835" d="M68 -10q6 133 11 269t5 265v348q0 131 -5 266.5t-11 264.5q92 -4 185 -7t185 -3t186.5 3t184.5 7q-4 -20 -5 -36.5t-1 -33.5q0 -16 1 -33.5t5 -37.5q-29 2 -60.5 4t-56.5 4q-43 4 -86 7t-91 6t-106.5 4t-132.5 1q0 -25 -1 -44t-3 -42q-2 -35 -3 -77t-1 -83q0 -47 1 -92 t1 -86v-78q166 0 282 5.5t212 15.5q-4 -18 -6 -37.5t-2 -36.5q0 -39 8 -74q-55 6 -125 10.5t-139.5 6.5t-130 3t-99.5 1q0 -16 -1 -37.5t-1 -53.5v-78v-114q0 -117 1 -185.5t3 -107.5q68 0 142.5 1t148.5 4.5t140.5 8.5t117.5 15q-10 -51 -10 -74q0 -14 2 -32.5t6 -36.5 q-90 4 -186 7t-189 3q-92 0 -188 -3t-188 -7zM96 1477l264 356h148l262 -356h-100l-238 206q-55 -49 -117.5 -103t-117.5 -103h-101z" />
<glyph unicode="&#xcb;" horiz-adv-x="833" d="M68 -10q6 133 11 269t5 265v348q0 131 -5 266.5t-11 264.5q92 -4 185 -7t185 -3t186.5 3t184.5 7q-4 -20 -5 -36.5t-1 -33.5q0 -16 1 -33.5t5 -37.5q-29 2 -60.5 4t-56.5 4q-43 4 -86 7t-91 6t-106.5 4t-132.5 1q0 -25 -1 -44t-3 -42q-2 -35 -3 -77t-1 -83q0 -47 1 -92 t1 -86v-78q166 0 282 5.5t212 15.5q-4 -18 -6 -37.5t-2 -36.5q0 -39 8 -74q-55 6 -125 10.5t-139.5 6.5t-130 3t-99.5 1q0 -16 -1 -37.5t-1 -53.5v-78v-114q0 -117 1 -185.5t3 -107.5q68 0 142.5 1t148.5 4.5t140.5 8.5t117.5 15q-10 -51 -10 -74q0 -14 2 -32.5t6 -36.5 q-90 4 -186 7t-189 3q-92 0 -188 -3t-188 -7zM121 1645q0 47 32.5 79.5t79.5 32.5t81 -32.5t34 -79.5t-33.5 -81t-81.5 -34q-47 0 -79.5 34t-32.5 81zM518 1645q0 47 34 79.5t81 32.5t79.5 -32.5t32.5 -79.5t-32.5 -81t-79.5 -34t-81 34t-34 81z" />
<glyph unicode="&#xcc;" horiz-adv-x="520" d="M8 1772q0 35 26.5 54t49.5 19q27 0 51.5 -14t46.5 -37l316 -317h-113l-301 190q-27 16 -51.5 40t-24.5 65zM223 -12q6 131 11.5 268t5.5 266v348q0 131 -5.5 267.5t-11.5 267.5q63 -12 109 -12q45 0 110 12q-6 -131 -11 -267.5t-5 -267.5v-348q0 -129 5 -266t11 -268 q-66 12 -110 12q-45 0 -109 -12z" />
<glyph unicode="&#xcd;" horiz-adv-x="518" d="M20 1477l316 317q23 23 47.5 37t50.5 14q23 0 49.5 -19.5t26.5 -53.5q0 -41 -24.5 -65t-51.5 -40q-74 -47 -150.5 -95t-150.5 -95h-113zM74 -12q6 131 11 268t5 266v348q0 131 -5 267.5t-11 267.5q63 -12 110 -12q43 0 109 12q-6 -131 -11.5 -267.5t-5.5 -267.5v-348 q0 -129 5.5 -266t11.5 -268q-66 12 -109 12q-47 0 -110 -12z" />
<glyph unicode="&#xce;" d="M6 1477l264 356h146l264 -356h-100l-238 206q-55 -49 -117.5 -103t-118.5 -103h-100zM233 -12q6 131 11.5 268t5.5 266v348q0 131 -5 267.5t-12 267.5q61 -12 109 -12q47 0 109 12q-6 -131 -11.5 -267.5t-5.5 -267.5v-348q0 -129 5 -266t12 -268q-61 12 -109 12 q-47 0 -109 -12z" />
<glyph unicode="&#xcf;" horiz-adv-x="653" d="M14 1645q0 47 33 79.5t80 32.5t81 -32.5t34 -79.5t-34 -81t-81 -34t-80 34t-33 81zM217 -12q6 131 11 268t5 266v348q0 131 -5 267.5t-11 267.5q61 -12 109 -12q47 0 108 12q-6 -131 -11 -267.5t-5 -267.5v-348q0 -129 5 -266t11 -268q-61 12 -108 12t-109 -12zM412 1645 q0 47 33.5 79.5t80.5 32.5t80 -32.5t33 -79.5t-33 -81t-80 -34t-80.5 34t-33.5 81z" />
<glyph unicode="&#xd0;" horiz-adv-x="1597" d="M51 733q2 16 4 30.5t2 22.5q0 4 -2 18.5t-4 31.5q57 -4 105.5 -4.5t95.5 -0.5v39q0 131 -5 266.5t-11 266.5q76 -4 156.5 -7t158.5 -3q37 0 75 1t76 3q37 2 76 4t78 2q180 0 308 -47t210 -134t120 -213t38 -284q0 -205 -70.5 -345t-180.5 -227t-242 -125t-253 -38 q-35 0 -67.5 1t-67.5 3t-67.5 4t-67.5 2q-68 0 -140.5 -3t-139.5 -7q6 131 11 267t5 265v215h-97.5t-103.5 -4zM436 522q0 -211 13 -420q43 -10 111.5 -14t144.5 -4q111 0 219 26.5t194 97.5t140.5 195.5t54.5 321.5q0 172 -42 283.5t-118 176t-178.5 89t-224.5 24.5 q-86 0 -163 -5t-138 -13q-12 -190 -13 -410v-39q98 0 199.5 1.5t193.5 5.5q-10 -41 -10 -52q0 -10 3 -23t7 -34q-92 4 -193 6t-200 2v-215z" />
<glyph unicode="&#xd1;" horiz-adv-x="1353" d="M59 -14q4 25 9.5 82t10.5 134t9 167t8 181t6 176t2 153q0 193 -1 338t-5 213h47q23 -23 45.5 -49.5t45.5 -49.5q119 -129 245.5 -266t247.5 -267t230.5 -245t193.5 -199v269.5t-2 275.5t-5 266t-9 242q25 -6 44 -10t33 -4t34 4t44 10q-4 -31 -7 -84t-7 -116.5t-8 -133 t-6 -136.5t-4.5 -124t-2.5 -96v-121t1.5 -145.5t1.5 -153.5t1 -144.5t2 -116.5t1 -73h-43q-211 250 -454 512t-484 518l-68 72q-2 -59 -4 -149.5t-2 -235.5q0 -43 1 -105.5t2 -132t3 -141.5t4 -134.5t4 -110.5t6 -70q-25 6 -45 10t-37 4q-16 0 -37.5 -4t-50.5 -10zM365 1526 q6 39 22 80t44 74.5t67 54t90 20.5q33 0 62.5 -10t88.5 -39q53 -27 78 -36t51 -9q41 0 68 30.5t39 71.5h78q-4 -27 -17.5 -67.5t-40 -78.5t-68.5 -64.5t-106 -26.5q-29 0 -66.5 12t-82.5 37q-51 27 -78 36t-49 9q-43 0 -62.5 -20.5t-36.5 -73.5h-81z" />
<glyph unicode="&#xd2;" horiz-adv-x="1624" d="M49 696q0 174 56.5 310.5t158 230.5t241.5 143.5t310 49.5t311.5 -49.5t242.5 -143.5t157.5 -230.5t56.5 -310.5t-56.5 -310t-157.5 -230.5t-242.5 -143.5t-311.5 -49t-310 49t-241.5 143.5t-158 230.5t-56.5 310zM268 696q0 -166 42 -285.5t116 -198.5t173 -116t216 -37 t217.5 37t174 116t115.5 198.5t42 285.5t-42 287t-115.5 199t-174 115.5t-217.5 37.5t-216 -37.5t-173 -115.5t-116 -199t-42 -287zM489 1772q0 35 28 54t50 19q25 0 50.5 -14t48.5 -37l315 -317h-113l-301 190q-27 16 -52.5 40t-25.5 65z" />
<glyph unicode="&#xd3;" horiz-adv-x="1624" d="M41 696q0 174 56.5 310.5t157.5 230.5t241.5 143.5t310.5 49.5t311.5 -49.5t242.5 -143.5t157.5 -230.5t56.5 -310.5t-56.5 -310t-157.5 -230.5t-242.5 -143.5t-311.5 -49t-310.5 49t-241.5 143.5t-157.5 230.5t-56.5 310zM260 696q0 -166 42 -285.5t116 -198.5t173 -116 t216 -37t217 37t174 116t116 198.5t42 285.5t-42 287t-116 199t-174 115.5t-217 37.5t-216 -37.5t-173 -115.5t-116 -199t-42 -287zM643 1477l315 317q23 23 47.5 37t51.5 14q23 0 50.5 -19.5t27.5 -53.5q0 -41 -26 -65t-52 -40q-74 -47 -150 -95t-151 -95h-113z" />
<glyph unicode="&#xd4;" horiz-adv-x="1632" d="M49 696q0 174 56.5 310.5t158 230.5t241.5 143.5t310 49.5t311.5 -49.5t242.5 -143.5t157.5 -230.5t56.5 -310.5t-56.5 -310t-157.5 -230.5t-242.5 -143.5t-311.5 -49t-310 49t-241.5 143.5t-158 230.5t-56.5 310zM268 696q0 -166 42 -285.5t116 -198.5t173 -116t216 -37 t217.5 37t174 116t115.5 198.5t42 285.5t-42 287t-115.5 199t-174 115.5t-217.5 37.5t-216 -37.5t-173 -115.5t-116 -199t-42 -287zM479 1477l264 356h146l264 -356h-100l-238 206q-55 -49 -117.5 -103t-117.5 -103h-101z" />
<glyph unicode="&#xd5;" horiz-adv-x="1632" d="M49 696q0 174 56.5 310.5t158 230.5t241.5 143.5t310 49.5t311.5 -49.5t242.5 -143.5t157.5 -230.5t56.5 -310.5t-56.5 -310t-157.5 -230.5t-242.5 -143.5t-311.5 -49t-310 49t-241.5 143.5t-158 230.5t-56.5 310zM268 696q0 -166 42 -285.5t116 -198.5t173 -116t216 -37 t217.5 37t174 116t115.5 198.5t42 285.5t-42 287t-115.5 199t-174 115.5t-217.5 37.5t-216 -37.5t-173 -115.5t-116 -199t-42 -287zM471 1526q6 39 22.5 80t44 74.5t66.5 54t90 20.5q35 0 63.5 -10t88.5 -39q53 -27 77.5 -36t51.5 -9q41 0 67.5 30.5t38.5 71.5h80 q-4 -27 -17.5 -67.5t-40 -78.5t-69.5 -64.5t-106 -26.5q-29 0 -67 12t-83 37q-49 27 -76.5 36t-50.5 9q-41 0 -60.5 -20.5t-37.5 -73.5h-82z" />
<glyph unicode="&#xd6;" horiz-adv-x="1632" d="M49 696q0 174 56.5 310.5t158 230.5t241.5 143.5t310 49.5t311.5 -49.5t242.5 -143.5t157.5 -230.5t56.5 -310.5t-56.5 -310t-157.5 -230.5t-242.5 -143.5t-311.5 -49t-310 49t-241.5 143.5t-158 230.5t-56.5 310zM268 696q0 -166 42 -285.5t116 -198.5t173 -116t216 -37 t217.5 37t174 116t115.5 198.5t42 285.5t-42 287t-115.5 199t-174 115.5t-217.5 37.5t-216 -37.5t-173 -115.5t-116 -199t-42 -287zM504 1645q0 47 32.5 79.5t79.5 32.5t81 -32.5t34 -79.5t-33.5 -81t-81.5 -34q-47 0 -79.5 34t-32.5 81zM901 1645q0 47 34 79.5t81 32.5 t79.5 -32.5t32.5 -79.5t-32.5 -81t-79.5 -34t-81 34t-34 81z" />
<glyph unicode="&#xd7;" horiz-adv-x="1060" d="M68 150l372 370q-92 92 -186 187.5t-186 187.5l92 88l370 -371q92 92 186.5 185.5t186.5 185.5l90 -88l-372 -375l372 -370l-90 -91l-373 371l-370 -371z" />
<glyph unicode="&#xd8;" horiz-adv-x="1656" d="M61 696q0 174 56.5 310.5t158 230.5t241.5 143.5t310 49.5q291 0 484 -140q18 20 45.5 51t54.5 63t48.5 59.5t27.5 41.5q14 -16 35.5 -35.5t40.5 -29.5q-16 -12 -41 -36t-51.5 -52.5l-53 -57t-47.5 -51.5q104 -94 164.5 -231.5t60.5 -315.5q0 -174 -56 -310 t-157.5 -230.5t-243 -143.5t-311.5 -49q-285 0 -477 133q-20 -23 -45.5 -52.5t-52.5 -60t-48.5 -58t-33.5 -48.5q-16 23 -35.5 39t-40.5 27q14 12 39 35.5t52.5 52t54 59.5t49.5 55q-109 92 -168.5 231.5t-59.5 319.5zM281 696q0 -141 30.5 -248.5t83.5 -183.5l819 922 q-72 78 -170 113.5t-217 35.5q-117 0 -216 -37.5t-172.5 -115.5t-115.5 -199t-42 -287zM446 205q72 -74 169.5 -110t211.5 -36q117 0 217.5 37t174 116t115.5 198.5t42 285.5q0 135 -30.5 243t-79.5 185z" />
<glyph unicode="&#xd9;" horiz-adv-x="1316" d="M61 1405q29 -6 61 -9t54 -3q20 0 46 4t54 10q-6 -49 -10 -124t-8 -167t-6 -198.5t-2 -217.5q0 -102 7 -211.5t48 -200.5t130 -150.5t255 -59.5q162 0 250 67.5t128 168t47 215t7 208.5v253t-2 191t-4 136t-8 90q29 -6 51.5 -10t42.5 -4q29 0 74 16q-6 -72 -12.5 -172 t-11.5 -215t-9 -235.5t-6 -231.5q-2 -135 -41 -244.5t-113.5 -186.5t-183 -119t-248.5 -42q-305 0 -446.5 144.5t-141.5 443.5q0 51 2.5 94t4.5 84q2 37 3 71t1 70q0 143 -3 261t-8 208q0 16 -1 35t-1 31zM342 1772q0 35 27.5 54t50.5 19q25 0 50.5 -14t47.5 -37l316 -317 h-113l-301 190q-27 16 -52.5 40t-25.5 65z" />
<glyph unicode="&#xda;" horiz-adv-x="1314" d="M47 1405q29 -6 60.5 -9t54.5 -3q20 0 45.5 4t54.5 10q-6 -49 -10 -124t-8 -167t-6 -198.5t-2 -217.5q0 -102 7 -211.5t48 -200.5t130 -150.5t255 -59.5q162 0 250 67.5t128 168t47 215t7 208.5v253t-2 191t-4 136t-8 90q29 -6 51 -10t43 -4q29 0 74 16q-6 -72 -12.5 -172 t-11.5 -215t-9 -235.5t-6 -231.5q-2 -135 -41 -244.5t-114 -186.5t-183.5 -119t-247.5 -42q-305 0 -446.5 144.5t-141.5 443.5q0 51 2 94t4 84q2 37 3 71t1 70q0 143 -3 261t-7 208q0 16 -1 35t-1 31zM489 1477l316 317q23 23 47.5 37t50.5 14q23 0 50.5 -19.5t27.5 -53.5 q0 -41 -25.5 -65t-52.5 -40q-74 -47 -149.5 -95t-151.5 -95h-113z" />
<glyph unicode="&#xdb;" horiz-adv-x="1325" d="M59 1405q29 -6 61 -9t54 -3q20 0 46 4t54 10q-6 -49 -10 -124t-8 -167t-6 -198.5t-2 -217.5q0 -102 7 -211.5t48 -200.5t130 -150.5t255 -59.5q162 0 250 67.5t128 168t47 215t7 208.5v253t-2 191t-4 136t-8 90q29 -6 51.5 -10t42.5 -4q29 0 74 16q-6 -72 -12.5 -172 t-11.5 -215t-9 -235.5t-6 -231.5q-2 -135 -41 -244.5t-113.5 -186.5t-183.5 -119t-248 -42q-305 0 -446.5 144.5t-141.5 443.5q0 51 2.5 94t4.5 84q2 37 3 71t1 70q0 143 -3 261t-8 208q0 16 -1 35t-1 31zM330 1477l264 356h145l265 -356h-101l-237 206q-55 -49 -118 -103 t-118 -103h-100z" />
<glyph unicode="&#xdc;" horiz-adv-x="1327" d="M59 1405q29 -6 61 -9t54 -3q20 0 46 4t54 10q-6 -49 -10 -124t-8 -167t-6 -198.5t-2 -217.5q0 -102 7 -211.5t48 -200.5t130 -150.5t255 -59.5q162 0 250 67.5t128 168t47 215t7 208.5v253t-2 191t-4 136t-8 90q29 -6 51.5 -10t42.5 -4q29 0 74 16q-6 -72 -12.5 -172 t-11.5 -215t-9 -235.5t-6 -231.5q-2 -135 -41 -244.5t-113.5 -186.5t-183.5 -119t-248 -42q-305 0 -446.5 144.5t-141.5 443.5q0 51 2.5 94t4.5 84q2 37 3 71t1 70q0 143 -3 261t-8 208q0 16 -1 35t-1 31zM354 1645q0 47 33 79.5t80 32.5t81 -32.5t34 -79.5t-34 -81t-81 -34 t-80 34t-33 81zM752 1645q0 47 33.5 79.5t80.5 32.5t80 -32.5t33 -79.5t-33 -81t-80 -34t-80.5 34t-33.5 81z" />
<glyph unicode="&#xdd;" horiz-adv-x="1191" d="M-2 1407q39 -6 72.5 -10t60.5 -4q49 0 115 12q90 -174 183 -343t198 -349q45 72 94 155.5t97 174t95.5 182.5t87.5 180q45 -12 86 -12q31 0 101 16q-98 -154 -177 -276.5t-140.5 -221t-106.5 -176.5t-78 -139q0 -74 2 -162t4 -174t4 -158.5t6 -113.5q-61 12 -108 12 q-50 0 -111 -12q14 121 16.5 272.5t2.5 310.5q-20 37 -60.5 103.5t-89.5 149.5t-103 172t-102.5 170t-88.5 144.5t-60 96.5zM428 1456l315 320q23 23 47.5 36t51.5 13q23 0 50.5 -19.5t27.5 -54.5q0 -41 -26 -63.5t-52 -38.5q-74 -47 -150 -96.5t-151 -96.5h-113z" />
<glyph unicode="&#xde;" horiz-adv-x="970" d="M82 -12q6 131 11 268t5 266v348q0 131 -5 267.5t-11 267.5q63 -12 108 -12q47 0 113 12q-8 -72 -13 -139.5t-5 -126.5h237q209 0 328 -86t119 -275q0 -115 -45 -190.5t-118 -120.5t-163 -63.5t-182 -18.5q-53 0 -94 1t-82 5v-100q0 -86 4 -171t16 -132q-66 12 -115 12 q-45 0 -108 -12zM285 487q25 -4 65.5 -5t81.5 -1q61 0 120.5 17.5t106 53.5t75 91t28.5 133q0 49 -15.5 97.5t-52.5 86t-96 61t-145 23.5h-168v-557z" />
<glyph unicode="&#xdf;" horiz-adv-x="1060" d="M66 -12q6 57 9 132t5 154.5t3 159.5t1 148v247q0 66 -1 114t-3 83q0 16 -1 28.5t-1 20.5q0 127 40 216t101.5 145.5t136 82t142.5 25.5q47 0 101 -17.5t99 -48t75 -74.5t30 -97q0 -45 -12.5 -84t-33 -74t-46 -65.5t-52.5 -59.5q-37 -43 -65.5 -80t-28.5 -76 q0 -29 14.5 -53t39 -47t56.5 -44.5t66 -43.5q45 -29 90.5 -59.5t81 -69.5t58 -86t22.5 -107q0 -68 -33.5 -137t-89 -124.5t-129 -91.5t-153.5 -36q-68 0 -123 15.5t-94 38.5q16 27 26.5 64.5t14.5 68.5h26q20 -37 74.5 -63.5t114.5 -26.5q39 0 76.5 14t67.5 39.5t47.5 63.5 t17.5 85t-19.5 86t-50.5 72t-71 60.5t-81 54.5q-39 27 -75.5 54.5t-66.5 58t-47 65.5t-17 78q0 59 36.5 108t83.5 103q27 29 53.5 59.5t48 64t35 71.5t13.5 79q0 76 -50 127t-141 51q-133 0 -183 -103.5t-50 -299.5v-475q0 -68 1 -149t3 -160.5t5 -153.5t9 -131 q-55 12 -102 12q-49 0 -104 -12z" />
<glyph unicode="&#xe0;" horiz-adv-x="948" d="M53 227q0 129 79 198t214 89q106 16 165.5 28.5t88.5 27t35 31.5t6 44q0 49 -11.5 93t-37 78t-66.5 54.5t-98 20.5q-78 0 -146.5 -36t-103.5 -101h-37v118q96 70 175 96.5t161 26.5q152 0 245 -84t93 -225q0 -113 -4 -227.5t-4 -243.5q0 -23 1 -47.5t7 -45t20.5 -33.5 t38.5 -13q10 0 22.5 2t31.5 12v-67q-23 -10 -58.5 -20.5t-81.5 -10.5q-63 0 -99 32.5t-48 77.5q-70 -68 -138.5 -100.5t-170.5 -32.5q-53 0 -103.5 18.5t-89.5 52.5t-62.5 81t-23.5 106zM158 1423q0 37 27.5 56.5t50.5 19.5q27 0 51 -14.5t47 -36.5l315 -320h-112l-301 193 q-27 16 -52.5 38.5t-25.5 63.5zM240 256q0 -92 51 -137t115 -45q74 0 133 41t94 94l8 287q-23 -6 -48.5 -11.5t-53.5 -11.5q-51 -10 -104.5 -22.5t-96.5 -36t-70.5 -60.5t-27.5 -98z" />
<glyph unicode="&#xe1;" horiz-adv-x="940" d="M23 227q0 129 78.5 198t213.5 89q106 16 166 28.5t88.5 27t34.5 31.5t6 44q0 49 -11 93t-36.5 78t-66.5 54.5t-99 20.5q-78 0 -146.5 -36t-103.5 -101h-36v118q96 70 175 96.5t160 26.5q152 0 245 -84t93 -225q0 -113 -4 -227.5t-4 -243.5q0 -23 1 -47.5t7.5 -45 t20.5 -33.5t39 -13q10 0 22.5 2t30.5 12v-67q-23 -10 -58.5 -20.5t-80.5 -10.5q-63 0 -99 32.5t-49 77.5q-70 -68 -138.5 -100.5t-170.5 -32.5q-53 0 -103.5 18.5t-89 52.5t-62 81t-23.5 106zM209 256q0 -92 51 -137t115 -45q74 0 133 41t94 94l8 287q-23 -6 -48 -11.5 t-54 -11.5q-51 -10 -104.5 -22.5t-96.5 -36t-70.5 -60.5t-27.5 -98zM289 1128l315 320q23 23 48.5 37t49.5 14q23 0 50.5 -19.5t27.5 -56.5q0 -41 -25.5 -63.5t-52.5 -38.5q-74 -47 -149.5 -96t-151.5 -97h-112z" />
<glyph unicode="&#xe2;" horiz-adv-x="954" d="M43 227q0 129 79 198t214 89q106 16 165.5 28.5t88 27t35 31.5t6.5 44q0 49 -11.5 93t-37 78t-66.5 54.5t-98 20.5q-78 0 -146.5 -36t-103.5 -101h-37v118q96 70 175 96.5t161 26.5q152 0 245 -84t93 -225q0 -113 -4 -227.5t-4 -243.5q0 -23 1 -47.5t7 -45t20.5 -33.5 t38.5 -13q10 0 22.5 2t31.5 12v-67q-23 -10 -59 -20.5t-81 -10.5q-63 0 -99 32.5t-48 77.5q-70 -68 -138.5 -100.5t-170.5 -32.5q-53 0 -103.5 18.5t-89.5 52.5t-62.5 81t-23.5 106zM137 1128l264 359h148l262 -359h-100l-238 209q-55 -51 -117.5 -104t-117.5 -105h-101z M229 256q0 -92 51.5 -137t114.5 -45q74 0 133.5 41t94.5 94l8 287q-23 -6 -48.5 -11.5t-54.5 -11.5q-51 -10 -104 -22.5t-96 -36t-71 -60.5t-28 -98z" />
<glyph unicode="&#xe3;" horiz-adv-x="968" d="M51 227q0 129 79 198t214 89q106 16 165.5 28.5t88.5 27t35 31.5t6 44q0 49 -11.5 93t-37 78t-66.5 54.5t-98 20.5q-78 0 -146.5 -36t-103.5 -101h-37v118q96 70 175 96.5t161 26.5q152 0 245 -84t93 -225q0 -113 -4 -227.5t-4 -243.5q0 -23 1 -47.5t7 -45t20.5 -33.5 t38.5 -13q10 0 22.5 2t31.5 12v-67q-23 -10 -59 -20.5t-81 -10.5q-63 0 -99 32.5t-48 77.5q-70 -68 -138.5 -100.5t-170.5 -32.5q-53 0 -103.5 18.5t-89.5 52.5t-62.5 81t-23.5 106zM137 1180q6 39 22.5 79.5t44 73.5t66.5 53.5t90 20.5q35 0 64 -9t88 -38q53 -27 77.5 -36 t51.5 -9q43 0 68.5 29.5t38.5 70.5h79q-4 -27 -17 -66.5t-40 -77.5t-70 -64.5t-106 -26.5q-27 0 -66 12t-84 35q-49 27 -76.5 36t-50.5 9q-41 0 -60 -19.5t-38 -72.5h-82zM238 256q0 -92 51 -137t114 -45q74 0 133.5 41t94.5 94l8 287q-23 -6 -48.5 -11.5t-53.5 -11.5 q-51 -10 -104.5 -22.5t-96.5 -36t-70.5 -60.5t-27.5 -98z" />
<glyph unicode="&#xe4;" horiz-adv-x="964" d="M49 227q0 129 79 198t214 89q106 16 165.5 28.5t88.5 27t35 31.5t6 44q0 49 -11.5 93t-37 78t-66.5 54.5t-98 20.5q-78 0 -146.5 -36t-103.5 -101h-37v118q96 70 175 96.5t161 26.5q152 0 245 -84t93 -225q0 -113 -4 -227.5t-4 -243.5q0 -23 1 -47.5t7 -45t20.5 -33.5 t38.5 -13q10 0 22.5 2t31.5 12v-67q-23 -10 -59 -20.5t-81 -10.5q-63 0 -99 32.5t-48 77.5q-70 -68 -138.5 -100.5t-170.5 -32.5q-53 0 -103.5 18.5t-89.5 52.5t-62.5 81t-23.5 106zM168 1296q0 47 32.5 80t80.5 33q47 0 80.5 -33t33.5 -80t-33.5 -79.5t-80.5 -32.5 t-80 32.5t-33 79.5zM236 256q0 -92 51 -137t114 -45q74 0 133.5 41t94.5 94l8 287q-23 -6 -48.5 -11.5t-53.5 -11.5q-51 -10 -104.5 -22.5t-96.5 -36t-70.5 -60.5t-27.5 -98zM565 1296q0 47 34 80t81 33t80 -33t33 -80t-33 -79.5t-80 -32.5t-81 32.5t-34 79.5z" />
<glyph unicode="&#xe5;" horiz-adv-x="952" d="M43 227q0 129 79 198t214 89q106 16 165.5 28.5t88 27t35 31.5t6.5 44q0 49 -11.5 93t-37 78t-66.5 54.5t-98 20.5q-78 0 -146.5 -36t-103.5 -101h-37v118q96 70 175 96.5t161 26.5q152 0 245 -84t93 -225q0 -113 -4 -227.5t-4 -243.5q0 -23 1 -47.5t7 -45t20.5 -33.5 t38.5 -13q10 0 22.5 2t31.5 12v-67q-23 -10 -59 -20.5t-81 -10.5q-63 0 -99 32.5t-48 77.5q-70 -68 -138.5 -100.5t-170.5 -32.5q-53 0 -103.5 18.5t-89.5 52.5t-62.5 81t-23.5 106zM229 256q0 -92 51.5 -137t114.5 -45q74 0 133.5 41t94.5 94l8 287q-23 -6 -48.5 -11.5 t-54.5 -11.5q-51 -10 -104 -22.5t-96 -36t-71 -60.5t-28 -98zM258 1313q0 45 17.5 84t46 67.5t68.5 46t85 17.5t84 -17.5t68.5 -46t47 -67.5t17.5 -84t-17.5 -84t-47 -69t-69.5 -47t-85 -17t-84 17t-68.5 47t-46 69t-16.5 84zM362 1313q0 -47 32 -79t79 -32t80 32t33 79 q0 45 -32 77.5t-79 32.5t-80 -32.5t-33 -77.5z" />
<glyph unicode="&#xe6;" horiz-adv-x="1605" d="M72 227q0 129 78.5 198t214.5 89q106 16 165.5 28.5t88 27t34.5 31.5t6 44q0 49 -11 93t-36.5 78t-66.5 54.5t-99 20.5q-78 0 -146.5 -36t-102.5 -101h-37v118q96 70 175 96.5t161 26.5q33 0 71.5 -7t78.5 -23.5t79 -44t74 -68.5q55 66 135 104.5t172 38.5 q109 0 188.5 -33.5t133 -91t80 -134.5t26.5 -163q0 -20 -1 -44.5t-3 -43.5q-37 0 -79 1t-79 1q-72 2 -142.5 3.5t-142.5 1.5q-45 0 -88 -1.5t-88 -3.5q-23 0 -40 -1t-40 -1q0 -4 -1 -8t-1 -8q0 -8 1 -15.5t1 -15.5q0 -78 23 -144.5t66 -115.5t105 -76.5t144 -27.5 q39 0 81 11t82 31.5t76 48.5t65 58l20 -14l-12 -113q-63 -49 -156.5 -88t-189.5 -39q-139 0 -249 57.5t-165 163.5q-18 -45 -46 -84.5t-72 -70.5t-106.5 -48.5t-146.5 -17.5q-53 0 -103 18.5t-89 52.5t-62.5 81t-23.5 106zM258 256q0 -82 48 -132t132 -50q37 0 75 13 t67.5 39t50 64.5t24.5 88.5q2 31 2 67.5v69.5q0 23 1 40t1 40q-23 -6 -48 -11.5t-54 -11.5q-51 -10 -104.5 -22.5t-96.5 -36t-70.5 -60.5t-27.5 -98zM838 582q16 0 33.5 -1t33.5 -1q47 -2 93 -3.5t92 -1.5q47 0 94 1.5t94 3.5q20 0 34.5 1t35.5 1q0 51 -10.5 109.5 t-37 107.5t-71.5 80.5t-119 31.5q-72 0 -121 -31.5t-82 -79.5t-49 -106.5t-20 -111.5z" />
<glyph unicode="&#xe7;" horiz-adv-x="968" d="M53 483q0 133 45 229.5t119 160t168 93t193 29.5q113 0 204.5 -29.5t132.5 -66.5q-16 -35 -28.5 -70.5t-20.5 -74.5h-26q-14 25 -39 53.5t-57.5 51t-73.5 37.5t-86 15q-88 0 -151.5 -32.5t-103.5 -90t-58.5 -135.5t-18.5 -168q0 -205 87 -308t251 -103q39 0 81 11 t82 31.5t75.5 48.5t64.5 58l22 -16q-4 -31 -8 -59.5t-6 -51.5q-59 -45 -142 -82t-173 -43q-10 -25 -16.5 -44t-14.5 -46q6 2 16.5 2h22.5q84 0 131 -42t47 -111q0 -45 -20.5 -79t-54 -57.5t-79 -35t-96.5 -11.5q-66 0 -114 13.5t-80 25.5l37 84q27 -10 65.5 -19t85.5 -9 q45 0 78 19.5t33 55.5q0 39 -28 54.5t-64 15.5q-63 0 -91 -16l-24 22l69 182q-84 8 -161.5 40t-139 93.5t-98.5 154.5t-37 220z" />
<glyph unicode="&#xe8;" horiz-adv-x="972" d="M47 455q0 125 32 225t91 170t147.5 107.5t202.5 37.5q109 0 188.5 -33.5t133 -91t80 -134.5t26.5 -163q0 -20 -1 -44.5t-3 -43.5q-37 0 -79 1t-79 1q-72 2 -142.5 3.5t-141.5 1.5q-45 0 -88 -1.5t-88 -3.5q-23 0 -40.5 -1t-39.5 -1q0 -4 -1 -8t-1 -8q0 -8 1 -15.5 t1 -15.5q0 -78 22.5 -144.5t65.5 -115.5t105.5 -76.5t144.5 -27.5q39 0 81 11t81.5 31.5t75.5 48.5t65 58l20 -14l-12 -113q-63 -49 -156.5 -88t-189.5 -39q-111 0 -204 37t-158.5 102.5t-102.5 155t-37 191.5zM199 1423q0 37 27.5 56.5t49.5 19.5q25 0 50.5 -14.5 t48.5 -36.5l315 -320h-115l-299 193q-27 16 -52 38.5t-25 63.5zM252 582q16 0 33.5 -1t33.5 -1q47 -2 93.5 -3.5t91.5 -1.5q47 0 94 1.5t94 3.5q20 0 34.5 1t35.5 1q0 51 -10.5 109.5t-37 107.5t-71.5 80.5t-119 31.5q-72 0 -121 -31.5t-81.5 -79.5t-49 -106.5t-20.5 -111.5 z" />
<glyph unicode="&#xe9;" horiz-adv-x="976" d="M25 455q0 125 31.5 225t91 170t147.5 107.5t203 37.5q109 0 188.5 -33.5t132.5 -91t80 -134.5t27 -163q0 -20 -1 -44.5t-3 -43.5q-37 0 -79 1t-79 1q-72 2 -142.5 3.5t-142.5 1.5q-45 0 -88 -1.5t-88 -3.5q-23 0 -40 -1t-40 -1q0 -4 -1 -8t-1 -8q0 -8 1 -15.5t1 -15.5 q0 -78 22.5 -144.5t65.5 -115.5t105.5 -76.5t144.5 -27.5q39 0 81 11t82 31.5t76 48.5t64 58l21 -14l-13 -113q-63 -49 -156 -88t-190 -39q-111 0 -204 37t-158.5 102.5t-102 155t-36.5 191.5zM229 582q16 0 34 -1t34 -1q47 -2 93 -3.5t91 -1.5q47 0 94.5 1.5t94.5 3.5 q20 0 34.5 1t34.5 1q0 51 -10 109.5t-36.5 107.5t-71.5 80.5t-119 31.5q-72 0 -121 -31.5t-82 -79.5t-49.5 -106.5t-20.5 -111.5zM338 1128l315 320q23 23 47.5 37t51.5 14q23 0 50 -19.5t27 -56.5q0 -41 -25.5 -63.5t-51.5 -38.5q-74 -47 -151 -96t-150 -97h-113z" />
<glyph unicode="&#xea;" horiz-adv-x="985" d="M41 455q0 125 31.5 225t91 170t147.5 107.5t203 37.5q109 0 188.5 -33.5t133 -91t80 -134.5t26.5 -163q0 -20 -1 -44.5t-3 -43.5q-37 0 -79 1t-79 1q-72 2 -142.5 3.5t-141.5 1.5q-45 0 -88 -1.5t-89 -3.5q-23 0 -40 -1t-39 -1q0 -4 -1 -8t-1 -8q0 -8 1 -15.5t1 -15.5 q0 -78 22.5 -144.5t65.5 -115.5t105.5 -76.5t144.5 -27.5q39 0 80.5 11t81.5 31.5t76 48.5t65 58l20 -14l-12 -113q-63 -49 -156.5 -88t-189.5 -39q-111 0 -204 37t-158.5 102.5t-102.5 155t-37 191.5zM182 1128l262 359h148l262 -359h-98l-238 209q-57 -51 -118.5 -104 t-118.5 -105h-99zM246 582q16 0 33.5 -1t33.5 -1q47 -2 93.5 -3.5t91.5 -1.5q47 0 94 1.5t94 3.5q20 0 34.5 1t35.5 1q0 51 -10.5 109.5t-37 107.5t-71.5 80.5t-119 31.5q-72 0 -121 -31.5t-81.5 -79.5t-49 -106.5t-20.5 -111.5z" />
<glyph unicode="&#xeb;" horiz-adv-x="999" d="M47 455q0 125 32 225t91 170t147.5 107.5t202.5 37.5q109 0 188.5 -33.5t133 -91t80 -134.5t26.5 -163q0 -20 -1 -44.5t-3 -43.5q-37 0 -79 1t-79 1q-72 2 -142.5 3.5t-141.5 1.5q-45 0 -88 -1.5t-88 -3.5q-23 0 -40.5 -1t-39.5 -1q0 -4 -1 -8t-1 -8q0 -8 1 -15.5 t1 -15.5q0 -78 22.5 -144.5t65.5 -115.5t105.5 -76.5t144.5 -27.5q39 0 81 11t81.5 31.5t75.5 48.5t65 58l20 -14l-12 -113q-63 -49 -156.5 -88t-189.5 -39q-111 0 -204 37t-158.5 102.5t-102.5 155t-37 191.5zM213 1296q0 47 33 80t80 33t79.5 -33t32.5 -80t-32.5 -79.5 t-79.5 -32.5t-80 32.5t-33 79.5zM252 582q16 0 33.5 -1t33.5 -1q47 -2 93.5 -3.5t91.5 -1.5q47 0 94 1.5t94 3.5q20 0 34.5 1t35.5 1q0 51 -10.5 109.5t-37 107.5t-71.5 80.5t-119 31.5q-72 0 -121 -31.5t-81.5 -79.5t-49 -106.5t-20.5 -111.5zM610 1296q0 47 33 80t80 33 t81 -33t34 -80t-34 -79.5t-81 -32.5t-80 32.5t-33 79.5z" />
<glyph unicode="&#xec;" horiz-adv-x="514" d="M10 1423q0 37 26.5 56.5t49.5 19.5q27 0 51.5 -14.5t46.5 -36.5l316 -320h-113l-301 193q-27 16 -51.5 38.5t-24.5 63.5zM231 -12q10 98 14.5 199.5t4.5 189.5v211q0 88 -4 189.5t-15 199.5q55 -12 103 -12q49 0 104 12q-10 -98 -14 -199.5t-4 -189.5v-211 q0 -88 4 -189.5t14 -199.5q-55 12 -104 12q-47 0 -103 -12z" />
<glyph unicode="&#xed;" horiz-adv-x="514" d="M12 1128l316 320q23 23 47 37t51 14q23 0 49.5 -19.5t26.5 -56.5q0 -41 -24.5 -63.5t-51.5 -38.5q-74 -47 -150.5 -96t-150.5 -97h-113zM72 -12q10 98 14 199.5t4 189.5v211q0 88 -4 189.5t-14 199.5q55 -12 104 -12q47 0 103 12q-10 -98 -14.5 -199.5t-4.5 -189.5v-211 q0 -88 4 -189.5t15 -199.5q-55 12 -103 12q-49 0 -104 -12z" />
<glyph unicode="&#xee;" horiz-adv-x="681" d="M4 1128l264 359h146l264 -359h-100l-238 209q-55 -51 -117.5 -104t-118.5 -105h-100zM238 -12q10 98 14 199.5t4 189.5v211q0 88 -4 189.5t-14 199.5q51 -12 102 -12q49 0 102 12q-10 -98 -14 -199.5t-4 -189.5v-211q0 -88 4 -189.5t14 -199.5q-53 12 -102 12 q-51 0 -102 -12z" />
<glyph unicode="&#xef;" horiz-adv-x="675" d="M25 1296q0 47 32.5 80t79.5 33t81 -33t34 -80t-34 -79.5t-81 -32.5t-79.5 32.5t-32.5 79.5zM233 -12q10 98 14.5 199.5t4.5 189.5v211q0 88 -4 189.5t-15 199.5q51 -12 103 -12q49 0 102 12q-10 -98 -14 -199.5t-4 -189.5v-211q0 -88 4 -189.5t14 -199.5q-53 12 -102 12 q-51 0 -103 -12zM422 1296q0 47 33.5 80t81.5 33q47 0 79.5 -33t32.5 -80t-32.5 -79.5t-79.5 -32.5t-81 32.5t-34 79.5z" />
<glyph unicode="&#xf0;" horiz-adv-x="1099" d="M57 483q0 141 45 238.5t117 158t161 88t179 27.5q18 0 37.5 -1t36.5 -3q-55 61 -111.5 120.5t-120.5 115.5q-63 -20 -130.5 -43t-133.5 -47q-20 41 -55 90q125 31 252 69q-55 49 -115.5 100.5t-136.5 106.5l166 41q72 -51 137.5 -99t120.5 -93q66 18 130 40.5t130 49.5 q16 -51 53 -90q-63 -16 -121.5 -31.5t-115.5 -34.5q250 -213 364.5 -406.5t114.5 -396.5q0 -141 -45 -239.5t-117 -158.5t-162 -88t-178 -28q-90 0 -179 28t-161 88t-117 158.5t-45 239.5zM256 483q0 -84 15.5 -160.5t50 -136t93 -95.5t144.5 -36t144.5 36t93 95.5t50 136 t15.5 160.5q0 82 -15.5 159t-50 137.5t-93 96t-144.5 35.5t-144.5 -35.5t-93 -96t-50 -137.5t-15.5 -159z" />
<glyph unicode="&#xf1;" horiz-adv-x="966" d="M63 -12q10 98 14.5 199.5t4.5 189.5v211q0 88 -4 189.5t-15 199.5q55 -12 103 -12q39 0 94 12q-6 -66 -6 -121v-22q55 78 132 119.5t181 41.5q57 0 116.5 -16t108 -56t79 -111t30.5 -177q0 -92 -4 -183.5t-4 -191.5v-136.5t4 -135.5q-55 12 -94 12q-43 0 -94 -12l6 176 q4 72 6 142.5t2 144.5v122q0 145 -56.5 221t-152.5 76q-137 0 -199.5 -84t-62.5 -237v-172q0 -88 3 -189.5t13 -199.5q-53 12 -102 12q-47 0 -103 -12zM139 1180q6 39 22.5 79.5t44 73.5t66.5 53.5t90 20.5q35 0 64 -9t88 -38q53 -27 77.5 -36t51.5 -9q41 0 67.5 29.5 t39.5 70.5h79q-4 -27 -17 -66.5t-40 -77.5t-70 -64.5t-106 -26.5q-59 0 -150 47q-49 27 -76.5 36t-50.5 9q-41 0 -60 -19.5t-38 -72.5h-82z" />
<glyph unicode="&#xf2;" horiz-adv-x="1081" d="M49 483q0 141 45 238.5t117 158t161 88t179 27.5q88 0 178 -27.5t162 -88t117 -157.5t45 -239q0 -141 -45 -239.5t-117 -158.5t-162 -88t-178 -28q-90 0 -179 28t-161 88t-117 158.5t-45 239.5zM225 1423q0 37 28 56.5t50 19.5q25 0 50.5 -14.5t47.5 -36.5l316 -320h-113 l-301 193q-27 16 -52.5 38.5t-25.5 63.5zM248 483q0 -84 15.5 -160.5t50 -136t93 -95.5t144.5 -36t144.5 36t93 95.5t50 136t15.5 160.5q0 82 -15.5 159t-50 137.5t-93 96t-144.5 35.5t-144.5 -35.5t-93 -96t-50 -137.5t-15.5 -159z" />
<glyph unicode="&#xf3;" horiz-adv-x="1079" d="M27 483q0 141 45 238.5t116.5 158t160.5 88t179 27.5q88 0 178.5 -27.5t162 -88t116.5 -157.5t45 -239q0 -141 -45 -239.5t-116.5 -158.5t-162 -88t-178.5 -28q-90 0 -179 28t-160.5 88t-116.5 158.5t-45 239.5zM225 483q0 -84 15.5 -160.5t50.5 -136t93 -95.5t144 -36 t144.5 36t93.5 95.5t50 136t15 160.5q0 82 -15 159t-50 137.5t-93.5 96t-144.5 35.5t-144 -35.5t-93 -96t-50.5 -137.5t-15.5 -159zM365 1128l315 320q23 23 47.5 37t50.5 14q23 0 50.5 -19.5t27.5 -56.5q0 -41 -25.5 -63.5t-52.5 -38.5q-74 -47 -149.5 -96t-151.5 -97h-112 z" />
<glyph unicode="&#xf4;" horiz-adv-x="1089" d="M43 483q0 141 45 238.5t116.5 158t161 88t179.5 27.5q88 0 178 -27.5t161.5 -88t117 -157.5t45.5 -239q0 -141 -45.5 -239.5t-117 -158.5t-161.5 -88t-178 -28q-90 0 -179.5 28t-161 88t-116.5 158.5t-45 239.5zM209 1128l264 359h145l265 -359h-101l-237 209 q-55 -51 -117.5 -104t-118.5 -105h-100zM242 483q0 -84 15 -160.5t50 -136t93.5 -95.5t144.5 -36t144.5 36t93 95.5t50 136t15.5 160.5q0 82 -15.5 159t-50 137.5t-93 96t-144.5 35.5t-144.5 -35.5t-93.5 -96t-50 -137.5t-15 -159z" />
<glyph unicode="&#xf5;" horiz-adv-x="1099" d="M47 483q0 141 45 238.5t117 158t161 88t179 27.5q88 0 178 -27.5t162 -88t117 -157.5t45 -239q0 -141 -45 -239.5t-117 -158.5t-162 -88t-178 -28q-90 0 -179 28t-161 88t-117 158.5t-45 239.5zM205 1180q6 39 22.5 79.5t44 73.5t66.5 53.5t90 20.5q35 0 63.5 -9 t88.5 -38q53 -27 77.5 -36t51.5 -9q41 0 67.5 29.5t38.5 70.5h80q-4 -27 -17.5 -66.5t-40 -77.5t-69.5 -64.5t-106 -26.5q-59 0 -150 47q-49 27 -76.5 36t-50.5 9q-41 0 -60.5 -19.5t-37.5 -72.5h-82zM246 483q0 -84 15 -160.5t50 -136t93.5 -95.5t144.5 -36t144.5 36 t93 95.5t50 136t15.5 160.5q0 82 -15.5 159t-50 137.5t-93 96t-144.5 35.5t-144.5 -35.5t-93.5 -96t-50 -137.5t-15 -159z" />
<glyph unicode="&#xf6;" horiz-adv-x="1099" d="M47 483q0 141 45 238.5t117 158t161 88t179 27.5q88 0 178 -27.5t162 -88t117 -157.5t45 -239q0 -141 -45 -239.5t-117 -158.5t-162 -88t-178 -28q-90 0 -179 28t-161 88t-117 158.5t-45 239.5zM238 1296q0 47 32.5 80t79.5 33t81 -33t34 -80t-34 -79.5t-81 -32.5 t-79.5 32.5t-32.5 79.5zM246 483q0 -84 15 -160.5t50 -136t93.5 -95.5t144.5 -36t144.5 36t93 95.5t50 136t15.5 160.5q0 82 -15.5 159t-50 137.5t-93 96t-144.5 35.5t-144.5 -35.5t-93.5 -96t-50 -137.5t-15 -159zM635 1296q0 47 33.5 80t81.5 33q47 0 79.5 -33t32.5 -80 t-32.5 -79.5t-79.5 -32.5t-81 32.5t-34 79.5z" />
<glyph unicode="&#xf7;" horiz-adv-x="1056" d="M8 459v125h1041v-125h-1041zM403 125q0 53 36 89t89 36t89 -36t36 -89q0 -51 -35.5 -88t-89.5 -37q-53 0 -89 37t-36 88zM403 918q0 51 36 87.5t89 36.5t89 -36.5t36 -87.5q0 -53 -35.5 -90t-89.5 -37q-53 0 -89 37t-36 90z" />
<glyph unicode="&#xf8;" horiz-adv-x="1189" d="M59 -47q8 8 26.5 25.5t42.5 42t49.5 51t47.5 53.5q-55 66 -88 150.5t-33 207.5q0 141 45.5 238.5t117 158t160.5 88t179 27.5q80 0 161 -20.5t153 -71.5q47 49 85.5 95t55.5 75q27 -41 67 -61q-23 -20 -68.5 -64.5t-88.5 -91.5q63 -66 99 -155t36 -218q0 -141 -45 -239.5 t-116 -158.5t-161 -88t-178 -28q-86 0 -170 23.5t-155 79.5q-45 -49 -87 -97.5t-65 -74.5q-23 35 -70 53zM303 483q0 -63 8 -120.5t27 -110.5l491 549q-31 53 -88 81.5t-135 28.5q-86 0 -144.5 -35.5t-93 -96t-50 -137.5t-15.5 -159zM373 176q35 -59 91 -90t142 -31 t144.5 36t93.5 95.5t50 136t15 160.5q0 72 -9 135.5t-34 116.5z" />
<glyph unicode="&#xf9;" horiz-adv-x="935" d="M63 311q0 57 1.5 105.5t3.5 89.5q2 37 2 70.5v68.5q0 72 -1 159t-3 173q51 -12 94 -12q41 0 94 12q-10 -119 -15.5 -271.5t-5.5 -302.5q0 -102 18.5 -155t41.5 -82q29 -31 69.5 -51.5t96.5 -20.5q78 0 134 37t81 86q14 31 22.5 57.5t12.5 68.5t5 109.5t1 182.5v176 t-4 166q51 -12 96 -12t92 12q-10 -158 -12 -311.5t-2 -313.5q0 -92 2 -185t6 -179q-47 12 -88 12q-16 0 -40 -4t-52 -10q2 35 3 63.5t1 54.5v37q-53 -78 -135 -125t-172 -47q-162 0 -254.5 89t-92.5 253zM156 1423q0 37 27.5 56.5t49.5 19.5q25 0 50.5 -14.5t48.5 -36.5 l315 -320h-112l-302 193q-27 16 -52 38.5t-25 63.5z" />
<glyph unicode="&#xfa;" horiz-adv-x="935" d="M35 311q0 57 1 105.5t3 89.5q2 37 2 70.5v68.5q0 72 -1 159t-3 173q51 -12 94 -12q41 0 94 12q-10 -119 -15 -271.5t-5 -302.5q0 -102 18.5 -155t40.5 -82q29 -31 70 -51.5t96 -20.5q78 0 134.5 37t80.5 86q14 31 22.5 57.5t12.5 68.5t5 109.5t1 182.5v176t-4 166 q51 -12 96 -12t92 12q-10 -158 -12 -311.5t-2 -313.5q0 -92 2 -185t6 -179q-47 12 -88 12q-16 0 -39.5 -4t-52.5 -10q2 35 3 63.5t1 54.5v37q-53 -78 -135 -125t-172 -47q-162 0 -254 89t-92 253zM289 1128l315 320q23 23 47.5 37t50.5 14q23 0 50.5 -19.5t27.5 -56.5 q0 -41 -25.5 -63.5t-52.5 -38.5q-74 -47 -149.5 -96t-151.5 -97h-112z" />
<glyph unicode="&#xfb;" horiz-adv-x="952" d="M57 311q0 57 1 105.5t3 89.5q2 37 2 70.5v68.5q0 72 -1 159t-3 173q51 -12 95 -12q41 0 94 12q-10 -119 -15.5 -271.5t-5.5 -302.5q0 -102 18.5 -155t41.5 -82q29 -31 69.5 -51.5t96.5 -20.5q78 0 134 37t81 86q14 31 22 57.5t12.5 68.5t5.5 109.5t1 182.5v176t-4 166 q51 -12 96 -12t92 12q-10 -158 -12 -311.5t-2 -313.5q0 -92 2 -185t6 -179q-47 12 -88 12q-16 0 -40 -4t-52 -10q2 35 3 63.5t1 54.5v37q-53 -78 -135 -125t-173 -47q-162 0 -254 89t-92 253zM139 1128l264 359h146l264 -359h-100l-238 209q-55 -51 -117.5 -104t-117.5 -105 h-101z" />
<glyph unicode="&#xfc;" horiz-adv-x="964" d="M63 311q0 57 1.5 105.5t3.5 89.5q2 37 2 70.5v68.5q0 72 -1 159t-3 173q51 -12 94 -12q41 0 94 12q-10 -119 -15.5 -271.5t-5.5 -302.5q0 -102 18.5 -155t41.5 -82q29 -31 69.5 -51.5t96.5 -20.5q78 0 134 37t81 86q14 31 22.5 57.5t12.5 68.5t5 109.5t1 182.5v176 t-4 166q51 -12 96 -12t92 12q-10 -158 -12 -311.5t-2 -313.5q0 -92 2 -185t6 -179q-47 12 -88 12q-16 0 -40 -4t-52 -10q2 35 3 63.5t1 54.5v37q-53 -78 -135 -125t-172 -47q-162 0 -254.5 89t-92.5 253zM170 1296q0 47 33 80t80 33t80.5 -33t33.5 -80t-33.5 -79.5 t-80.5 -32.5t-80 32.5t-33 79.5zM567 1296q0 47 34 80t81 33t80 -33t33 -80t-33 -79.5t-80 -32.5t-81 32.5t-34 79.5z" />
<glyph unicode="&#xfd;" horiz-adv-x="964" d="M6 979q33 -6 61.5 -10t51.5 -4q45 0 100 12q55 -174 126 -350t144 -357q4 -14 11.5 -27.5t13.5 -25.5q78 172 153.5 369.5t137.5 390.5q39 -12 74 -12q27 0 86 16q-14 -29 -47 -97.5t-77 -164.5t-96.5 -212t-106.5 -239t-107.5 -245.5t-99.5 -230t-80 -196t-50 -139.5 q-41 12 -74 13q-33 -1 -92 -17q86 141 155.5 276.5t125.5 268.5q-25 61 -59.5 148t-75.5 185.5t-84 200t-80 190.5t-67 156.5t-44 100.5zM322 1128l315 320q23 23 47.5 37t50.5 14q23 0 50.5 -19.5t27.5 -56.5q0 -41 -25.5 -63.5t-52.5 -38.5q-74 -47 -149.5 -96t-151.5 -97 h-112z" />
<glyph unicode="&#xfe;" horiz-adv-x="1024" d="M80 -543q6 57 9 132t5 155t3 160t1 147v895q0 68 -1 149t-3 160.5t-5 153.5t-9 131q55 -12 104 -12q47 0 103 12q-6 -57 -9.5 -132t-5.5 -154.5t-3 -159.5t-1 -148l4 -137q18 33 47 65.5t70 59.5t94.5 44t120.5 17q78 0 154 -29.5t135 -91t96 -157.5t37 -228 q0 -131 -40 -229t-103.5 -162.5t-143.5 -96.5t-159 -32q-104 0 -181 44t-131 128v-90q0 -68 1 -148.5t3 -160.5t5.5 -153.5t9.5 -131.5q-55 12 -103 13q-49 0 -104 -13zM268 475q0 -410 285 -409q70 0 122 32.5t86 90t50 135.5t16 168q0 117 -24.5 194.5t-62.5 122.5 t-86 63.5t-95 18.5q-80 0 -135 -34t-90 -90t-50.5 -132t-15.5 -160z" />
<glyph unicode="&#xff;" horiz-adv-x="970" d="M14 979q33 -6 61.5 -10t51.5 -4q45 0 100 12q55 -174 126 -350t145 -357q4 -14 11 -27.5t13 -25.5q78 172 154 369.5t137 390.5q39 -12 74 -12q27 0 86 16q-14 -29 -47 -97.5t-77 -164.5t-96.5 -212t-106.5 -239t-107.5 -245.5t-99.5 -230t-79.5 -196t-50.5 -139.5 q-41 12 -73 13q-34 -1 -93 -17q86 141 156 276.5t125 268.5q-23 61 -58.5 148t-76.5 185.5t-84 200t-80 190.5t-66.5 156.5t-44.5 100.5zM182 1296q0 47 33 80t80 33t81 -33t34 -80t-34 -79.5t-81 -32.5t-80 32.5t-33 79.5zM580 1296q0 47 33.5 80t80.5 33t80 -33t33 -80 t-33 -79.5t-80 -32.5t-80.5 32.5t-33.5 79.5z" />
<glyph unicode="&#x152;" horiz-adv-x="2060" d="M74 672q0 184 56 325.5t154.5 237.5t233.5 145.5t295 49.5q115 0 199 -22t143 -53.5t98 -66.5t64 -61q0 47 -2 89t-6 87q86 -4 172 -7t170 -3q82 0 170 3t170 7q-6 -23 -10.5 -40t-4.5 -32q0 -16 4.5 -35.5t10.5 -42.5q-33 6 -68 13.5t-88 11.5t-132 7t-200 3 q0 -18 -1 -38.5t-3 -37.5q-4 -66 -5 -134t-1 -134v-156q109 0 178.5 1.5t115.5 3.5t74.5 4t53.5 4q6 0 18.5 1t18.5 1q-6 -18 -10.5 -35.5t-4.5 -30.5q0 -12 4.5 -29.5t10.5 -37.5q-6 0 -19.5 1t-19.5 1q-25 2 -53.5 4t-74.5 4t-116 3t-176 1v-192q0 -152 6 -299 q2 -23 3 -44.5t1 -44.5q215 0 332 8.5t170 16.5q-6 -23 -10 -39t-4 -31q0 -14 4 -30.5t10 -38.5q-86 4 -176 7t-176 3t-178.5 -3t-180.5 -7q4 47 7.5 85t3.5 72v31q-35 -37 -81 -76t-109.5 -69.5t-146.5 -50t-190 -19.5q-145 0 -274 49t-224.5 140.5t-150.5 222.5t-55 297z M291 696q0 -166 42 -285.5t112.5 -198.5t165 -116t198.5 -37q119 0 214 46.5t161.5 130t102.5 200.5t36 260q0 174 -38 296t-103.5 198t-156.5 110.5t-196 34.5q-113 0 -211 -37.5t-170.5 -115.5t-114.5 -199t-42 -287z" />
<glyph unicode="&#x153;" horiz-adv-x="1837" d="M76 483q0 141 45 238.5t115.5 158t159.5 88t179 27.5q109 0 214.5 -42t177.5 -128q59 80 151 125t215 45q109 0 189 -33.5t133 -91t79.5 -134.5t26.5 -163q0 -20 -1 -44.5t-3 -43.5q-37 0 -79 1t-79 1q-72 2 -142.5 3.5t-141.5 1.5q-43 0 -87 -1.5t-89 -3.5 q-23 0 -40.5 -1t-39.5 -1q0 -4 -1 -8t-1 -8q0 -8 1 -15.5t1 -15.5q0 -78 22.5 -144.5t65.5 -115.5t106.5 -76.5t145.5 -27.5q78 0 162 43t141 106l18 -14l-12 -113q-63 -49 -156.5 -88t-189.5 -39q-123 0 -224.5 48.5t-166.5 125.5q-72 -90 -178.5 -132t-217.5 -42 q-90 0 -179 28t-159.5 88t-115.5 158.5t-45 239.5zM272 483q0 -84 15.5 -160.5t50.5 -136t93 -95.5t144 -36q88 0 146.5 36t93.5 95.5t50.5 136t15.5 160.5q0 82 -15.5 159t-50.5 137.5t-93 96t-147 35.5q-86 0 -144 -35.5t-93 -96t-50.5 -137.5t-15.5 -159zM1065 582 q16 0 33.5 -1t34.5 -1q47 -2 94 -3.5t90 -1.5q47 0 94 1.5t94 3.5q23 0 37 1t33 1q0 51 -10.5 109.5t-36 107.5t-71.5 80.5t-120 31.5q-72 0 -121 -31.5t-81.5 -79.5t-49 -106.5t-20.5 -111.5z" />
<glyph unicode="&#x178;" horiz-adv-x="1193" d="M2 1407q39 -6 73 -10t60 -4q49 0 115 12q90 -174 183 -343t198 -349q45 72 94 155.5t97 174t95.5 182.5t88.5 180q45 -12 86 -12q31 0 100 16q-98 -154 -177 -276.5t-140.5 -221t-106.5 -176.5t-78 -139q0 -74 2 -162t4 -174t4 -158.5t7 -113.5q-61 12 -109 12 q-50 0 -111 -12q14 121 16.5 272.5t2.5 310.5q-20 37 -60 103.5t-89.5 149.5t-102.5 172t-102.5 170t-89 144.5t-60.5 96.5zM305 1645q0 47 33 79.5t80 32.5t79.5 -32.5t32.5 -79.5t-32.5 -81t-79.5 -34t-80 34t-33 81zM702 1645q0 47 33 79.5t80 32.5t81 -32.5t34 -79.5 t-34 -81t-81 -34t-80 34t-33 81z" />
<glyph unicode="&#x2c6;" horiz-adv-x="724" d="M25 1128l264 359h145l264 -359h-100l-238 209q-55 -51 -117.5 -104t-117.5 -105h-100z" />
<glyph unicode="&#x2dc;" horiz-adv-x="804" d="M55 1180q6 39 22.5 79.5t44.5 73.5t66.5 53.5t90.5 20.5q35 0 63.5 -9t87.5 -38q53 -27 77.5 -36t51.5 -9q41 0 67.5 29.5t39.5 70.5h79q-4 -27 -17 -66.5t-39.5 -77.5t-70 -64.5t-106.5 -26.5q-59 0 -150 47q-49 27 -76.5 36t-49.5 9q-41 0 -60.5 -19.5t-38.5 -72.5h-82 z" />
<glyph unicode="&#x2000;" horiz-adv-x="938" />
<glyph unicode="&#x2001;" horiz-adv-x="1876" />
<glyph unicode="&#x2002;" horiz-adv-x="938" />
<glyph unicode="&#x2003;" horiz-adv-x="1876" />
<glyph unicode="&#x2004;" horiz-adv-x="625" />
<glyph unicode="&#x2005;" horiz-adv-x="469" />
<glyph unicode="&#x2006;" horiz-adv-x="312" />
<glyph unicode="&#x2007;" horiz-adv-x="312" />
<glyph unicode="&#x2008;" horiz-adv-x="234" />
<glyph unicode="&#x2009;" horiz-adv-x="375" />
<glyph unicode="&#x200a;" horiz-adv-x="104" />
<glyph unicode="&#x2010;" d="M82 403v146h522v-146h-522z" />
<glyph unicode="&#x2011;" d="M82 403v146h522v-146h-522z" />
<glyph unicode="&#x2012;" d="M82 403v146h522v-146h-522z" />
<glyph unicode="&#x2013;" horiz-adv-x="1202" d="M86 418v114h1028v-114h-1028z" />
<glyph unicode="&#x2014;" horiz-adv-x="2224" d="M92 418v114h2040v-114h-2040z" />
<glyph unicode="&#x2018;" horiz-adv-x="360" d="M4 907q0 20 11.5 43t21.5 45v2v2v-2q61 106 127.5 217t128.5 218l55 -21l-160 -498q-8 -29 -30.5 -57.5t-67.5 -28.5q-29 0 -57.5 18.5t-28.5 61.5z" />
<glyph unicode="&#x2019;" horiz-adv-x="360" d="M12 846l160 500q8 29 30.5 56.5t67.5 27.5q29 0 57.5 -18.5t28.5 -59.5q0 -23 -11 -46.5t-23 -45.5h2q-61 -106 -128 -217t-128 -218zM324 1257v3v-3z" />
<glyph unicode="&#x201a;" horiz-adv-x="360" d="M12 -336l160 500q8 29 30.5 56.5t67.5 27.5q29 0 57.5 -18.5t28.5 -59.5q0 -23 -11 -46.5t-23 -45.5h2q-61 -106 -128 -217t-128 -217zM324 76v2v-2z" />
<glyph unicode="&#x201c;" horiz-adv-x="770" d="M37 907q0 20 11 43t22 45v2v2v-2q63 106 128.5 217t127.5 218l55 -21l-160 -498q-8 -29 -30.5 -57.5t-67.5 -28.5q-29 0 -57.5 18.5t-28.5 61.5zM385 907q0 20 11.5 43t21.5 45v2v2v-2q61 106 127.5 217t128.5 218l55 -21l-160 -498q-8 -29 -30.5 -57.5t-69.5 -28.5 q-27 0 -55.5 18.5t-28.5 61.5z" />
<glyph unicode="&#x201d;" horiz-adv-x="772" d="M43 846l160 500q8 29 30.5 56.5t69.5 27.5q27 0 55.5 -18.5t28.5 -59.5q0 -23 -11 -46.5t-24 -45.5h2q-61 -106 -127.5 -217t-128.5 -218zM354 1257v3v-3zM391 846l160 500q8 29 30.5 56.5t67.5 27.5q29 0 57.5 -18.5t28.5 -59.5q0 -23 -11 -46.5t-24 -45.5h2 q-63 -106 -128.5 -217t-127.5 -218zM702 1257v3v-3z" />
<glyph unicode="&#x201e;" horiz-adv-x="772" d="M43 -336l160 500q8 29 30.5 56.5t69.5 27.5q27 0 55.5 -18.5t28.5 -59.5q0 -23 -11 -46.5t-24 -45.5h2q-61 -106 -127.5 -217t-128.5 -217zM354 76v2v-2zM391 -336l160 500q8 29 30.5 56.5t67.5 27.5q29 0 57.5 -18.5t28.5 -59.5q0 -23 -11 -46.5t-24 -45.5h2 q-63 -106 -128.5 -217t-127.5 -217zM702 76v2v-2z" />
<glyph unicode="&#x2022;" horiz-adv-x="819" d="M55 696q0 74 28 138.5t76 112.5t112.5 76t138.5 28t138 -28t112.5 -76t76 -112.5t27.5 -138.5t-27.5 -137t-76 -111.5t-113 -76t-137.5 -27.5q-74 0 -138.5 27.5t-112.5 76t-76 111.5t-28 137z" />
<glyph unicode="&#x2026;" horiz-adv-x="1765" d="M86 100q0 53 36 89t89 36q51 0 88 -35.5t37 -89.5q0 -51 -37 -88t-88 -37q-53 0 -89 37t-36 88zM758 100q0 53 35.5 89t89.5 36q53 0 89 -35.5t36 -89.5q0 -51 -36 -88t-89 -37t-89 37t-36 88zM1430 100q0 53 36.5 89t87.5 36q53 0 89 -35.5t36 -89.5q0 -51 -35.5 -88 t-89.5 -37q-51 0 -87.5 37t-36.5 88z" />
<glyph unicode="&#x202f;" horiz-adv-x="375" />
<glyph unicode="&#x2039;" horiz-adv-x="403" d="M0 479l266 395q12 -23 37 -42t57 -23l-231 -328q53 -86 109.5 -174t109.5 -170q-29 -4 -55.5 -23.5t-36.5 -41.5z" />
<glyph unicode="&#x203a;" horiz-adv-x="399" d="M39 147l231 330l-219 342q29 4 55.5 23.5t36.5 44.5l256 -408l-266 -397q-12 23 -36.5 42t-57.5 23z" />
<glyph unicode="&#x205f;" horiz-adv-x="469" />
<glyph unicode="&#x20ac;" horiz-adv-x="1181" d="M27 496q14 35 23 70.5t16 70.5q14 -4 43.5 -7t64.5 -5v28v38t2 36q-47 -2 -83 -5t-66 -11q14 37 23 71.5t16 69.5q16 -4 50 -7t77 -5q25 115 75.5 213t123.5 169.5t164 112.5t196 41q90 0 188 -28.5t170 -73.5l4 -12q-16 -41 -27.5 -82t-19.5 -84l-43 -2q-47 86 -127 131 t-152 45q-125 0 -221 -107.5t-129 -324.5h324q55 0 113.5 2t119.5 14q-16 -33 -26.5 -76t-14.5 -65q-49 10 -103 12t-101 2h-324q-2 -23 -2 -48.5v-49.5v-6h276q57 0 114.5 2t121.5 14q-16 -33 -27.5 -76t-15.5 -65q-49 8 -103.5 10t-101.5 2h-256q12 -100 45 -180 t80 -135.5t105.5 -84t123.5 -28.5q78 0 159 41t157 121l22 -39q-6 -29 -9 -58.5t-7 -64.5q-27 -23 -68 -43.5t-89 -34.5t-99 -22.5t-96 -8.5q-102 0 -191.5 36t-159 104.5t-115.5 169t-63 227.5q-47 -2 -86 -5t-71 -9z" />
<glyph unicode="&#x2122;" horiz-adv-x="1781" d="M51 1307q16 33 17 51q0 12 -17 45q78 -4 164 -7t164 -3q80 0 166 3t164 7q-16 -33 -17 -45q0 -18 17 -51q-66 4 -133.5 8t-133.5 4v-275q0 -182 7 -360q2 -29 2 -66.5t2 -66.5q-23 6 -41.5 10t-32.5 4q-12 0 -30.5 -4t-41.5 -10v41q4 78 7 182.5t3 253.5v291 q-66 0 -135 -4t-131 -8zM707 549q27 123 50 273.5t44 293.5q8 72 17 149.5t20 149.5h39q59 -133 118.5 -247.5t118.5 -221.5v2q29 -45 51.5 -86t51.5 -86l94 166q63 111 131.5 236t128.5 237h31l24 -266q6 -68 15.5 -148.5t19.5 -160.5t20.5 -156t20.5 -135q-45 16 -68 16 q-14 0 -30.5 -4t-38.5 -10q-4 86 -10.5 191.5t-20.5 222.5q-8 53 -13 94t-14 96q-16 -33 -35.5 -64.5t-35.5 -62.5q-29 -53 -62 -114.5t-64.5 -124t-58 -120t-43.5 -100.5h-32q-41 92 -76 161t-70 132q-16 33 -33.5 62.5t-33.5 62.5q-23 45 -42.5 77t-43.5 77 q-6 -47 -12.5 -96.5t-10.5 -96.5q-12 -96 -19.5 -194.5t-9.5 -204.5q-39 16 -55 16q-20 0 -63 -16z" />
<glyph unicode="&#x25fc;" horiz-adv-x="983" d="M0 0v983h983v-983h-983z" />
<glyph unicode="&#xfb01;" horiz-adv-x="1038" d="M35 864q2 14 4 27.5t2 23.5q0 6 -2 19.5t-4 30.5q18 0 43.5 -1t44.5 -1h59q0 61 13.5 129.5t37 134t55 124t72.5 99.5q39 39 96.5 66.5t116.5 27.5q10 0 24.5 -2t27.5 -6q0 -20 -1 -38.5t-3 -35.5q-2 -23 -3.5 -51.5t-1.5 -48.5l-24 -10q-47 29 -109 28q-41 0 -70.5 -16 t-48 -42t-27.5 -60.5t-9 -71.5q0 -35 6 -100.5t16 -126.5h94q27 0 60 1t59 1q-6 -35 -6 -50q0 -10 1 -23t5 -28q-16 0 -40.5 1t-41.5 1q-35 2 -64.5 3t-64.5 1q0 -219 1 -439t7 -443q-53 12 -96 12q-45 0 -100 -12q14 223 16 441t2 441q-23 0 -43 -1t-43 -3q-12 0 -30.5 -1 t-30.5 -1zM741 1317q0 47 34 80t81 33t80 -33t33 -80t-33 -80t-80 -33t-81 33t-34 80zM752 -12q10 98 14 199.5t4 189.5v211q0 88 -4 189.5t-14 199.5q55 -12 104 -12q47 0 102 12q-10 -98 -14 -199.5t-4 -189.5v-211q0 -88 4 -189.5t14 -199.5q-55 12 -102 12 q-49 0 -104 -12z" />
<glyph unicode="&#xfb02;" horiz-adv-x="1050" d="M35 864q2 14 4 27.5t2 23.5q0 6 -2 19.5t-4 30.5q18 0 43.5 -1t44.5 -1h59q0 61 13.5 129.5t37 134t55 124t72.5 99.5q39 39 96.5 66.5t116.5 27.5q10 0 24.5 -2t27.5 -6q0 -20 -1 -38.5t-3 -35.5q-2 -23 -3.5 -51.5t-1.5 -48.5l-24 -10q-47 29 -109 28q-41 0 -70.5 -16 t-48 -42t-27.5 -60.5t-9 -71.5q0 -35 6 -100.5t16 -126.5h94q27 0 60 1t59 1q-6 -35 -6 -50q0 -10 1 -23t5 -28q-16 0 -40.5 1t-41.5 1q-35 2 -64.5 3t-64.5 1q0 -219 1 -439t7 -443q-53 12 -96 12q-45 0 -100 -12q14 223 16 441t2 441q-23 0 -43 -1t-43 -3q-12 0 -30.5 -1 t-30.5 -1zM764 -12q6 57 9 132t5 154.5t3 159.5t1 148v364q0 68 -1 149t-3 160.5t-5 153.5t-9 131q55 -12 102 -12q49 0 105 12q-6 -57 -9.5 -132t-5.5 -154.5t-3 -159.5t-1 -148v-364q0 -68 1 -149t3 -160.5t5.5 -153.5t9.5 -131q-55 12 -105 12q-47 0 -102 -12z" />
</font>
</defs>
</svg>
